<?xml version="1.0" standalone="no"?>
<!DOCTYPE svg PUBLIC "-//W3C//DTD SVG 1.1//EN" "http://www.w3.org/Graphics/SVG/1.1/DTD/svg11.dtd" >
<svg xmlns="http://www.w3.org/2000/svg">
<metadata></metadata>
<defs>
<font id="ncdsregular" horiz-adv-x="0" >
<font-face units-per-em="2048" ascent="1638" descent="-410" />
<missing-glyph horiz-adv-x="512" />
<glyph />
<glyph unicode="&#xd;" horiz-adv-x="512" />
<glyph />
<glyph />
<glyph unicode=" "  horiz-adv-x="512" />
<glyph unicode="&#x09;" horiz-adv-x="512" />
<glyph unicode="&#xa0;" horiz-adv-x="512" />
<glyph unicode="1" horiz-adv-x="1536" d="M0 86q0 -34 26 -60t62 -26h520q69 0 69 39q0 23 -30 53l-166 166l275 274q12 14 12 32t-12 32l-160 160q-14 12 -33 12t-31 -12l-274 -275l-166 166q-29 28 -53 28q-39 0 -39 -67v-522zM768 973q0 -19 12 -33l160 -158q14 -14 33 -14t31 14l274 273l166 -166 q29 -28 53 -28q39 0 39 67v522q0 34 -26 60t-62 26h-520q-69 0 -69 -39q0 -23 30 -53l166 -166l-275 -274q-12 -14 -12 -31z" />
<glyph unicode="2" horiz-adv-x="1536" d="M0 203q0 -19 12 -31l160 -160q14 -14 33 -14t31 14l274 275l166 -166q30 -30 54 -30q38 0 38 67v522q0 35 -25.5 60.5t-62.5 25.5h-520q-69 0 -69 -39q0 -23 30 -53l166 -166l-275 -272q-12 -15 -12 -33zM768 854q0 -34 27 -61q19 -25 61 -25h520q69 0 69 39q0 23 -30 53 l-166 166l275 272q12 15 12 34q0 18 -12 30l-160 160q-14 14 -33 14t-31 -14l-274 -275l-166 166q-30 30 -54 30q-38 0 -38 -67v-522z" />
<glyph unicode="A" horiz-adv-x="1644" d="M8 219q1 -97 60 -158t145 -61q96 0 164.5 58.5t68.5 148.5v4q0 101 -61 164t-168 67q-91 0 -150 -64t-59 -159zM8 768q206 0 382 -105t278 -281.5t102 -381.5h320q-8 453 -283 748q-158 166 -366 254t-433 88v-322zM8 1327q254 0 512 -102q243 -96 438 -291 q176 -176 269 -418q100 -260 100 -508v-8h320v8q0 273 -113 600q-110 309 -342 549q-477 492 -1155 492h-29v-322z" />
<glyph unicode="B" horiz-adv-x="1646" d="M4 512q3 -64 21 -127q37 -139 129 -231q82 -84 204 -125q54 -21 107 -27h698q1 0 36 3q87 8 195 73q59 35 109.5 90.5t74.5 110.5q49 109 60 202v455q0 4 -3 24q-3 18 -26.5 39t-41.5 25q-3 1 -8 1t-7 -1h-131q-25 5 -41 20q-39 37 -39 119v4q0 41 -12 89q-23 89 -90 181 q-65 87 -180 147q-109 57 -185 61h-395q-110 -13 -222 -76q-57 -32 -110.5 -91t-81.5 -117q-57 -117 -61 -206v-643zM433 1091q0 3 1 5v43q0 13 14 36q19 32 56 39q8 3 16 3h309q14 -2 21 -5q3 -2 10 -4.5t11 -3.5q11 -4 20 -14q20 -21 24 -37q3 -7 3 -14v-31q-2 -10 -3 -18 q-12 -29 -24 -41q-17 -18 -41 -23q-6 -3 -13 -3q-1 0 -3.5 0.5t-4.5 0.5h-305q-18 0 -39 7q-22 7 -38 31q-14 19 -14 29zM435 493q0 3 1 5v57q0 9 4 16q10 19 25 31q26 20 41 21q14 2 20 2h592q18 -4 27 -7q28 -11 45 -28q15 -22 20 -33q4 -7 4 -14v-39q-2 -8 -6 -15 q-9 -16 -24 -34q-18 -18 -39 -23q-14 -2 -21 -2h-602l-8 -1q-5 0 -8 1q-30 8 -41 19q-12 7 -17 16q-13 18 -13 28z" />
<glyph unicode="C" horiz-adv-x="2166" d="M-2 793q0 -192 159 -333q73 -65 166.5 -101.5t194.5 -36.5q91 0 177.5 42t154.5 115q66 72 103.5 162.5t37.5 185.5q0 96 -41.5 184t-112.5 157q-70 66 -158 103.5t-177 37.5q-214 0 -360 -149q-144 -149 -144 -367zM1171 823q0 -100 40 -190t113 -159t166 -107.5 t193 -38.5q191 0 333 140q147 145 147 363q0 210 -148 350q-70 65 -163.5 101.5t-196.5 36.5q-97 0 -185 -39t-156 -108q-68 -68 -105.5 -159t-37.5 -190z" />
<glyph unicode="D" horiz-adv-x="1699" d="M6 72q0 -12 4 -19q4 -17 19 -30q20 -21 45 -21h743v791h-811v-721zM897 874h117l-117 117v-117zM897 1100l221 -226h115l-336 338v-112zM897 1315l438 -441h115l-553 556v-115zM897 1538l666 -664h110l-776 779v-115zM1004 1657l694 -699v129l-572 572zM1241 1659 l459 -463v119l-340 342zM1477 1659l223 -232v113l-113 117zM1659 1661l41 -45v45h-41z" />
<glyph unicode="E" horiz-adv-x="2596" d="M10 334q5 -20 23 -20h5q18 2 25 2q3 0 8 -0.5t7 -0.5q54 -2 84 -2q27 0 89 2q139 8 260 8h37q43 0 64 -1q77 -1 148 -13q11 14 11 25q0 6 -3 12q-6 14 -6 30q0 30 17 67q13 31 17 54q3 12 3 22q0 40 -45 48q-17 -16 -23 -58q-7 -47 -18 -63q-16 -21 -76 -40 q-101 -35 -221 -35q-20 0 -54 2q-66 6 -90 41q-16 19 -16 67q-3 22 -5 71v27q0 36 1 54q6 105 20 141q8 -1 24 -1q24 0 53 3q26 3 83 7q32 2 47 2q11 0 29 -2q35 -3 61 -21q21 -12 30 -52q8 -35 34 -44q16 7 19 28q2 14 2 24q0 28 -7 73q-3 21 -3 38q0 22 5 50q3 12 5 38v5 q0 34 -31 34q-14 -17 -24 -60q-8 -34 -34 -48q-27 -15 -65 -16q-22 -2 -33 -2q-16 0 -48 2q-112 10 -136 10q-4 1 -12 1q-7 0 -11 -1q-6 98 -6 170q0 111 18 157q110 19 229 19q156 0 189 -60q6 -11 6 -20v-19q0 -20 17 -34q32 0 32 43q0 11 -2 39t-2 37q0 12 5 32 q4 15 4 32q0 28 -25 28h-6q-94 -17 -300 -17q-110 0 -165 1h-54q-68 0 -100 -1q-10 0 -17 1t-21 1q-25 0 -29 -20q1 -19 10 -24q7 -5 45 -11q11 -1 25 -10q9 -9 19.5 -37.5t14.5 -54.5q5 -31 5 -75q0 -26 -2 -64q-3 -73 -3 -168q0 -124 3 -235v-16q0 -88 -27 -147 q-3 -4 -7.5 -7t-8 -4.5t-11.5 -3t-11 -2.5t-13 -2t-12 -1q-46 -6 -50 -35zM879 864q4 -10 15 -13q2 -1 11 -3t15 -4q39 -10 51 -31q22 -35 22 -91v-10q-1 -53 -8 -128q-5 -65 -5 -113v-19q2 -66 32 -102q25 -37 72 -46q17 -4 39 -4q27 0 51 7q47 13 79.5 42.5t32.5 64.5 q-12 6 -21 6q-13 0 -31 -10q-35 -21 -56 -21q-59 1 -79 56q-20 56 -20 143q0 55 9 141q5 50 5 82v15q0 26 -1 38h194q4 17 4 41v13q-15 9 -42 11h-21q-29 0 -93 -2h-7q-23 0 -42 7q-3 14 -3 28t10 69q4 22 4 31q0 30 -17 44h-12q-18 -22 -30 -48q-5 -8 -13 -25t-13 -26 q-36 -68 -69 -89q-10 -7 -20 -10q-14 -4 -20 -6q-19 -6 -23 -38zM1384 325q0 -10 5 -20q8 -2 19 -2q12 0 24 6q4 3 14 9q8 5 30 5h9q29 0 62 -11t71 -13h10q52 0 100 20q95 40 115 133q4 15 4 34q0 30 -12 65q-11 31 -39 56t-56 38.5t-71 31.5q-9 3 -13 5q-28 12 -38 16 t-33 14.5t-32 18t-22 19.5t-17.5 25t-4.5 28v5q0 35 26 55.5t67 24.5q4 1 13 1q37 -1 71.5 -15.5t50.5 -42.5q7 -10 14 -39q5 -20 21 -40h4q15 0 21 9q10 16 10 55v12q-1 13 -1 36q0 14 3 27q4 17 5 28v6q0 25 -20 25h-4q-11 -4 -19 -12t-22 -10q-63 19 -124 19 q-3 -1 -11 -1q-65 -1 -115 -27q-45 -24 -69 -62q-23 -36 -23 -76q0 -25 4 -42q9 -48 51.5 -77.5t116.5 -59.5q97 -41 124 -60q34 -25 40 -55q3 -17 3 -30q0 -43 -31.5 -70t-82.5 -28h-4h-4q-50 0 -98 22q-50 23 -64 61q-7 17 -9 46q-2 30 -13 51q-45 0 -45 -50q0 -23 3 -48 t3 -46q-5 -29 -13 -50q-4 -9 -4 -20zM1892 44q0 -14 8 -24q18 -20 50 -20q30 0 67.5 15t57.5 32q47 41 90 114q70 117 157 323q32 80 68 153q35 70 52 112q22 53 50 87q14 16 61 38q39 19 44 48q-16 8 -48 8h-11q-52 -2 -78 -2q-46 0 -82 4q-5 1 -15 1q-29 0 -43 -15 q4 -15 11 -23.5t13 -11.5t16 -5l24 -9q23 -11 23 -48q0 -6 -2 -18q-9 -45 -41 -101q-10 -18 -25 -49q-27 -53 -45 -102q-17 -48 -47 -76q-15 56 -35 99q-30 62 -44 93q-52 109 -52 203q6 9 19 10q18 2 27 4q14 3 20.5 9t6.5 18v7q-20 12 -56 12l-159 -3h-8q-36 0 -63 7 q-3 0 -5 -2q-3 -3 -6 -4v-35q42 -6 70 -34q50 -48 87 -151q33 -94 61 -158q15 -33 30 -76q33 -89 33 -140q0 -71 -48 -146q-48 -74 -108 -102q-23 18 -65 18q-32 0 -49 -12q-11 -30 -11 -48z" />
<glyph unicode="F" horiz-adv-x="804" d="M12 799h170v-795h361v801h227l33 293h-260v178q0 29 25.5 56.5t58.5 27.5h172v289h-328q-119 0 -206 -100q-85 -98 -85 -230v-223h-168v-297z" />
<glyph unicode="G" horiz-adv-x="1611" d="M12 848q0 -151 45 -292q54 -175 150 -267q68 -69 107.5 -103.5t81.5 -59.5q11 -6 23.5 -12.5t23.5 -11t29 -11t29.5 -10.5t36.5 -11.5t37.5 -11t45.5 -13t49 -14.5q147 -25 282 -25q141 0 254 27l330 114v373l70 80h-480l-172 -104h338v-82q0 -49 1 -76t1 -76 q0 -21 -1 -31q-1 -11 -1 -26v-25q-105 -53 -252 -53q-101 0 -199 22.5t-161 55.5q-184 93 -289 270q-95 160 -108 344q-2 22 -2 35v33q0 193 86.5 337.5t265.5 248.5q110 61 229 61q53 0 115 -8q53 -7 115 -35q109 -51 221 -143l-51 -109l106 27l160 164q2 2 2 4 q0 11 -50 37q-40 19 -119 52q-159 62 -251 89q-87 22 -192 22q-91 0 -179 -16q-310 -58 -495 -253q-122 -129 -211 -361q-19 -57 -21 -156z" />
<glyph unicode="H" horiz-adv-x="1650" d="M6 815q0 -167 63.5 -317t176.5 -263q113 -114 261.5 -177.5t315.5 -63.5t317 63.5t264 177.5q114 113 177.5 263t63.5 317q0 165 -63.5 315t-177.5 263t-264 176t-317 63t-315.5 -63t-261.5 -176t-176.5 -263t-63.5 -315zM143 780q17 0 49 -2q30 -2 46 -2q294 0 614 111 q22 -63 41 -99q-176 -60 -322 -170.5t-249 -265.5q-83 88 -130 197.5t-49 230.5zM145 915q29 165 125 296.5t240 207.5q163 -186 283 -405q-266 -99 -555 -99h-93zM424 256q191 295 514 403q83 -249 102 -495q-94 -33 -217 -33q-204 0 -399 125zM647 1470q87 25 176 25 q135 0 257 -49t216 -141q-177 -153 -376 -242q-113 211 -273 407zM977 938q215 94 409 260q121 -181 121 -383q-157 37 -260 37q-63 0 -221 -27q-32 79 -49 113zM1071 694q88 17 176 17q116 0 246 -31q-29 -145 -113 -264t-209 -191q-34 264 -100 469z" />
<glyph unicode="I" horiz-adv-x="1673" d="M12 1425q0 -78 58 -133q57 -55 137 -55h2q77 0 134 55q56 54 56 133v9q0 83 -60 141q-59 57 -140 57h-4q-78 0 -131 -60q-52 -58 -52 -138v-9zM14 0h379v1126h-379v-1126zM573 0h381v754q0 10 11.5 27t31.5 31q56 40 129 40h4q70 0 117 -42q33 -29 41 -58v-752h385v795 q-12 132 -69 213q-93 127 -301 127q-93 0 -158 -17q-114 -32 -164 -80q-22 -21 -27 -22v110h-381v-1126z" />
<glyph unicode="J" horiz-adv-x="2369" d="M6 1223q8 -128 8 -277v-651h228v549q0 40 12 78q18 53 63 92t107 39q79 0 119.5 -58.5t40.5 -160.5v-539h227v557q0 46 12 78q20 54 63.5 88.5t100.5 34.5q166 0 166 -246v-512h227v547q0 204 -96 312q-79 89 -211 89q-106 0 -190 -55q-71 -48 -113 -115h-4 q-31 79 -99 124.5t-159 45.5q-111 0 -185 -52q-65 -46 -100 -106h-6l-10 138h-201zM1509 745q0 -215 126 -341q128 -128 352 -128q191 0 323 60l-35 160q-122 -43 -256 -43q-121 0 -196 58q-86 66 -90 183h622q6 32 6 99q0 179 -87 302q-105 148 -312 148q-211 0 -338 -152 q-115 -139 -115 -346zM1733 858q9 89 56 149q60 76 159 76q102 0 155 -80q37 -59 37 -145h-407z" />
<glyph unicode="K" horiz-adv-x="1617" d="M12 219h1606v1217h-1606v-1217zM119 444v795l397 -397zM193 348l413 412q34 -32 47.5 -44t40.5 -31.5t52 -26.5t55 -7h6q59 0 101 23.5t98 79.5l407 -406h-1220zM203 1327h1214l-483 -481q-34 -34 -60 -48t-69 -14h-10q-11 0 -21.5 2t-20.5 6.5t-16.5 8t-16 12t-13.5 12 t-14 14t-13 13.5zM1100 836l399 399v-799z" />
<glyph unicode="L" horiz-adv-x="2656" d="M-4 791q0 -158 59 -294t161 -238q97 -97 217.5 -150.5t240.5 -53.5h10q63 0 135 14q132 26 237 82q63 34 120 91t81 84l-83 202q-45 -78 -113 -137q-147 -137 -338 -137h-6q-236 0 -389 161q-150 155 -150 390v4q0 108 41 205.5t114 171.5q71 72 166.5 112.5t198.5 40.5 h9q127 0 252 -60q118 -58 169 -142q103 -179 197 -423q33 -87 51.5 -132.5t55 -125t77.5 -153.5q49 -93 158 -164q110 -71 240 -71h26q213 0 343 124q126 120 126 306q0 111 -25 176q-24 64 -100 127q-37 30 -83.5 53t-73 31.5t-87.5 26.5q-56 16 -90.5 27.5t-88.5 37 t-101 59.5q-33 24 -33 113v24q0 12 4 21q7 19 13 40q8 33 45 59q1 0 14.5 10.5t18.5 14t18 12t21 12t18.5 7t19.5 3.5q23 0 40 -4q22 -5 44 -5q2 0 8 2q2 1 7 1q23 -13 38 -18q11 -4 25 -14q27 -20 68 -75l145 72q-31 49 -69 90q-80 92 -154 102q-40 8 -125 8 q-167 0 -272 -94q-53 -46 -81 -116.5t-28 -147.5q0 -103 44.5 -176.5t106.5 -116.5q87 -61 215 -98q61 -18 109 -36q121 -43 178 -114q29 -37 29 -98q0 -63 -33 -127q-32 -60 -73 -82q-101 -49 -203 -49q-79 0 -140 30.5t-90 84.5q-99 187 -245 543q-36 86 -86 206 q-38 87 -62 111q-8 2 -20 24q-14 22 -37 52q-70 84 -170 137q-154 80 -369 94q-130 -6 -254.5 -57t-220.5 -142q-221 -211 -221 -534v-14z" />
<glyph unicode="M" horiz-adv-x="1583" d="M27 446h331v-163h375v-322h709v668q-19 149 -123 242q-98 87 -225 87h-4q-54 0 -95 -15q-89 -33 -143 -77l-14 24q-15 22 -42 51q-75 75 -167 75q-50 0 -89 -14q-72 -28 -112 -74q-19 30 -47 57q-57 57 -137 57q-95 0 -150 -59q-67 -72 -67 -225v-312zM88 1219 q0 -59 47 -101.5t109 -42.5q64 0 106.5 44.5t42.5 105.5v8q0 64 -48.5 107.5t-113.5 43.5q-62 0 -103 -51q-40 -51 -40 -114zM430 1241q0 -75 57 -134q54 -56 131 -56q73 0 132 59q57 59 57 133q0 67 -53 127q-57 62 -131 62q-79 0 -135 -54q-58 -55 -58 -133v-4zM831 1266 q0 -108 76 -182q78 -76 183 -76q95 0 176 76q82 77 82 182q0 106 -79 185q-77 77 -177 77q-110 0 -185 -77q-76 -78 -76 -185z" />
<glyph unicode="N" horiz-adv-x="942" d="M4 551q0 -49 36.5 -88t86.5 -41h21q22 0 49 18l221 -155v-361h112v119l215 150q21 -8 28 -14q8 -7 42 -7q41 0 81 35q44 39 44 94q0 57 -38 93t-91 36q-51 0 -88 -35q-41 -41 -41 -88q0 -17 1 -20l3 -15l-158 -108v360l217 148q9 -1 14 -5q3 -2 11 -6q13 -8 41 -8 q51 2 90 38t39 93q0 56 -35.5 91.5t-89.5 35.5q-56 0 -95.5 -38t-39.5 -82q0 -22 4 -39l-156 -109v356l217 152q24 -5 33 -11q6 -5 29 -5h14q44 0 81.5 38.5t37.5 90.5q0 58 -38 93.5t-93 35.5q-49 0 -88 -36t-39 -93v-20q0 -5 1 -6t1 -2v-7l-156 -107v566h-112v-318 l-154 109q0 15 1 17t1 30q-4 47 -46 80.5t-89 33.5q-51 0 -88 -38t-37 -91q0 -49 37 -87t86 -38q12 0 26 2q3 0 8 0.5t8 1.5q3 0 7.5 1t6.5 2q1 0 4 1l6 2t6 1l217 -148v-354l-160 98q1 11 5 17q3 3 3 30q-2 49 -43.5 86t-87.5 37q-53 0 -91 -41.5t-38 -95.5t41 -90 q42 -37 80 -37l2 2q12 0 26 2q12 3 28 12q2 1 16 7l219 -156v-352l-158 106q0 7 1 9t1 7t1 9t1 20q-2 47 -43 81t-90 34t-87 -39t-38 -90z" />
<glyph unicode="O" horiz-adv-x="1873" d="M4 1225q0 -127 70 -242q-19 -90 -19 -180q0 -123 39 -261q63 -229 273 -407q155 -133 355 -185q104 -27 211 -27q87 0 181 16q111 -70 250 -70q169 0 315 115q84 65 135 172q54 113 54 237q0 133 -62 244q11 90 11 156q0 71 -10 147q-22 171 -110 329q-44 80 -114.5 152 t-150.5 125q-153 100 -327 137q-83 17 -165 17q-90 0 -174 -21q-118 68 -252 68q-203 0 -348 -148q-79 -78 -120.5 -175.5t-41.5 -198.5zM492 508v8q0 42 32 71t74 29h6q33 0 56 -14q38 -24 80 -83q38 -54 90 -74q34 -15 83 -15q12 0 48 -2q5 0 15 -2t15 -2q85 0 130.5 42.5 t45.5 100.5q0 35 -18 61.5t-53 35.5q-136 39 -228 59q-9 2 -44.5 11t-52.5 14t-46.5 14.5t-53 20.5t-44.5 24q-129 82 -129 254q0 139 133 232q123 87 289 87h12q203 0 326 -80q97 -65 120 -159q2 -6 2 -19q0 -38 -33.5 -66t-76.5 -28h-10q-36 0 -55 12q-33 17 -66 65 q-14 18 -35 36q-63 45 -168 45h-21q-66 0 -108 -21q-64 -32 -64 -104v-2q0 -43 43 -67q71 -41 245 -74q70 -14 140 -35q137 -44 193.5 -116t56.5 -192v-10q0 -161 -134 -246q-125 -81 -316 -81q-210 0 -344 78q-64 36 -99.5 86t-35.5 106z" />
<glyph unicode="P" horiz-adv-x="1959" d="M2 784q0 -120 31 -243l813 733l-348 311q-144 -78 -241.5 -178t-162.5 -229q-92 -181 -92 -394zM66 438q27 -52 69 -128q35 -66 80 -117q57 -64 102 -100q36 -30 125 -89v774zM547 -51q52 -34 162 -58q111 -26 221 -26q80 0 131 10q230 46 389 158q186 130 297 350h-1200 v-434zM606 1624l692 -623v605q-113 45 -195.5 64.5t-178.5 19.5q-94 0 -181.5 -19t-136.5 -47zM1397 477h389q20 64 29.5 97.5t19.5 93.5t10 116q0 53 -14 144q-42 224 -189 415q-61 77 -127.5 131.5t-117.5 73.5v-1071z" />
<glyph unicode="Q" horiz-adv-x="1462" d="M-57 152l108 -332q120 31 187 58q84 34 172 89q12 7 24 16.5t26.5 23.5t24 23.5t26.5 28t24 26.5t26 30t24 27q35 40 55 61t45 40t42 19q21 0 52 -16q50 -27 139 -96q73 -58 131 -115q43 -44 88 -107q11 -17 49 -67l256 151q-36 64 -46 80q-45 73 -88 134q-19 24 -51 73 q-10 16 -21.5 31.5t-20.5 26.5t-21.5 24.5t-19.5 21t-20 19t-18 15.5t-18.5 15.5t-15.5 13.5q-26 22 -37 33.5t-21 30.5t-10 41q0 6 1 10q1 3 1 11q10 32 30 49q30 25 97 38q26 4 56 17l190 80l-98 248q-74 -13 -136 -35q-57 -22 -124 -22h-21q-6 0 -22 2q-76 12 -171 51 q-101 42 -206 80q-71 -74 -105 -125q-45 -67 -69 -133q-23 -52 -33 -187q-10 -136 -25 -180q-17 -49 -73.5 -108t-132.5 -113q-32 -22 -62 -36q-47 -20 -119 -41q-35 -10 -69 -25zM621 1436q0 -123 85 -208q85 -87 207 -87q121 0 209 88t88 209q0 124 -89 208 q-92 87 -212 87t-205 -93q-83 -91 -83 -204z" />
<glyph unicode="R" horiz-adv-x="2138" d="M-2 834q0 -64 52 -132q54 -72 93 -86q-8 -21 -8 -69q0 -130 68 -236q107 -171 333 -272q213 -96 470 -96h18q239 0 457 94q201 88 295 211q118 152 118 299q0 30 -5 52q-5 20 -5 24q60 24 99.5 79.5t39.5 139.5q0 102 -80 172q-78 65 -176 65q-16 0 -32 -2.5t-32 -8 t-28 -10t-29 -13t-23.5 -12t-22.5 -13t-17 -10.5q-154 76 -237 98q-90 22 -133 30q-46 8 -140 13q7 46 7 95q0 38 20 83q24 52 58 79.5t91 27.5t95 -13q34 -12 92 -30q0 -85 41 -140q70 -96 192 -96h6q85 0 155 62q71 63 71 163t-77 165q-70 59 -159 59q-66 0 -135 -47 q-56 -39 -66 -70q-50 18 -73.5 26t-61.5 14.5t-80 6.5q-133 0 -205 -98q-38 -52 -54.5 -116.5t-16.5 -166.5q-68 -10 -129 -13q-55 -4 -127 -24q-66 -16 -140 -49q-84 -38 -139 -59q-76 69 -172 69h-8q-109 0 -182 -67q-78 -73 -78 -174v-4zM104 825v4q0 51 20.5 80t65.5 54 q27 14 68 14q47 0 94 -29q-4 -3 -27 -23q-1 -1 -10 -8.5t-13 -11.5q-22 -19 -58 -63q-34 -43 -44 -65l-14 -28q-13 -24 -18 -32q-3 3 -12 11.5t-13 12.5t-11.5 12.5t-11.5 15t-8 15.5t-6 19.5t-2 21.5zM240 541q0 116 65 213t179 167q107 66 242 102t269 36 q141 0 281.5 -33.5t252.5 -96.5q119 -68 188 -165t69 -219q0 -108 -62.5 -200.5t-172.5 -159.5q-107 -66 -246 -103t-285 -37q-162 0 -305 40t-250 111q-106 69 -165.5 159.5t-59.5 185.5zM575 647q0 -44 38 -75t85 -31q48 0 81.5 32t33.5 82q0 47 -35 81t-82 34t-84 -38 t-37 -85zM635 320q0 -10 6 -21q24 -46 146 -85q117 -38 214 -38t214 34q104 30 163 75q3 3 11 25q2 5 2 13q0 22 -28 41q-12 7 -21 7q-15 0 -43 -16q-31 -18 -65 -32q-97 -44 -230 -44q-80 0 -132 12q-78 18 -140 59q-28 19 -48 19q-21 0 -33 -19q-16 -13 -16 -30zM1212 647 q0 -48 39 -77t88 -29q47 0 79 34t32 82v2q0 26 -37 63q-43 41 -80 48q-50 0 -85.5 -37t-35.5 -86zM1540 1385q0 47 39.5 82.5t89.5 35.5q53 0 90 -37t37 -90v-4q0 -49 -37 -83t-90 -34q-52 0 -90 35q-39 38 -39 95zM1671 948q13 7 20 12l15 9q18 8 55 8h4q61 0 108.5 -38.5 t47.5 -104.5v-15q0 -26 -11.5 -46.5t-20 -28t-31.5 -25.5l-86 139q-27 35 -46 47q-17 10 -55 43z" />
<glyph unicode="S" horiz-adv-x="2201" d="M2 489q0 -100 38.5 -189t106.5 -157q67 -68 157 -106.5t190 -38.5q99 0 189.5 36t158.5 100q69 64 107 152.5t38 188.5v699q0 48 32 81t79 33t78.5 -33t31.5 -81v-138l156 -69l223 69v138q0 98 -37.5 187.5t-104.5 158.5q-68 69 -157.5 107t-189.5 38q-205 0 -347 -145 q-68 -69 -106.5 -158.5t-38.5 -187.5v-685q0 -48 -32.5 -83t-79.5 -35q-49 0 -82 35t-33 83v302h-377v-302zM1208 475q0 -100 38.5 -190.5t107.5 -158.5q144 -142 346 -142q101 0 191 37t158 105t105 158t37 191v301h-374v-301q0 -51 -33 -84t-84 -33q-48 0 -80.5 33 t-32.5 84v309l-223 -69l-156 69v-309z" />
<glyph unicode="T" horiz-adv-x="2519" d="M0 63q365 -231 793 -231q453 0 804 230q317 208 496 557q170 331 170 684v67q153 111 256 268q-143 -63 -295 -82q165 99 225 287q-147 -89 -327 -127q-156 164 -377 164q-105 0 -198.5 -40t-166.5 -111q-72 -71 -112.5 -166t-40.5 -199q0 -51 14 -119q-316 16 -598 162 q-279 144 -467 379q-72 -116 -72 -260q0 -132 62.5 -245.5t169.5 -184.5q-126 1 -236 63v-6q0 -185 119 -328q116 -142 297 -178q-64 -18 -137 -18q-46 0 -96 8q47 -153 181 -255q128 -98 302 -103q-285 -222 -643 -222q-61 0 -123 6z" />
<glyph unicode="U" horiz-adv-x="1871" d="M-4 600h162v-727h147v727h160v121h-469v-121zM143 1827l201 -567v-367h172v387l199 547h-170l-113 -375h-6l-115 375h-168zM522 -25q0 -44 25 -86q19 -22 71 -22q86 0 154 78v-72h137v625h-137v-475q-9 -12 -17 -19q-25 -22 -43 -23q-7 -1 -14 -1q-26 0 -32 6q0 5 -4 14 q-5 10 -5 23v475h-135v-523zM729 1065q0 -84 57 -135q61 -58 162 -58q99 2 160 58q57 40 57 135v356q0 84 -57 127q-56 54 -154 54q-95 0 -168 -48q-57 -56 -57 -133v-356zM883 1051v379q0 24 18 34q13 19 47 19q13 0 25 -5l11 -6q11 -6 14.5 -9t8.5 -12t5 -21v-379 q-1 -24 -19.5 -42t-44.5 -18q-33 0 -51 21q-5 8 -9 18q-5 10 -5 21zM1012 -127h137v45q14 -14 57 -39q41 -12 72 -12q59 0 88 35q33 42 33 102v346q0 65 -33 119q-40 37 -96 37q-47 0 -64 -14q-9 -6 -29 -18q-15 -8 -28 -21v268h-137v-848zM1149 -8v393q5 6 12 9q8 3 13 7 q9 0 16 5q5 4 16 4q22 0 39 -17q10 -12 10 -41v-10v-319q0 -38 -4 -43q-21 -19 -39 -19q-11 0 -16 4t-16 4q-18 8 -31 23zM1288 1006q0 -55 29 -91q33 -36 82 -36q30 0 82 24q32 20 48 29q23 13 44 37v-76h156v692h-156v-526q-27 -30 -45 -37q-28 -16 -47 -16q-17 0 -33 12 q-2 6 -2 33v534h-158v-579zM1470 51q2 -87 50 -141q56 -53 143 -53q103 0 154 45q51 59 51 149v31h-139v-31q0 -56 -15 -71q-13 -11 -43 -11q-37 1 -47 17q-14 14 -14 65v119h258v164q0 75 -51 135q-48 45 -144 45q-88 0 -145 -51q-58 -55 -58 -129v-283zM1610 272v62 q0 45 14 59q13 8 47 8q22 0 43 -8q15 -39 15 -59v-62h-119z" />
<glyph unicode="V" horiz-adv-x="1884" d="M16 1159q20 -19 33 -46q12 -25 41 -30q16 -2 24 -2q25 1 49 9q70 24 105 24q15 0 23 -2q27 -6 54 -49t43 -100q13 -50 32 -107q39 -116 86 -307q5 -20 18 -71t21 -81q19 -80 50 -156q71 -176 173 -223q30 -11 62 -11h6q40 2 73 11q72 18 125 50q215 123 412 391 q168 225 299 514q97 213 121 338q7 38 7 78q0 11 -2 37q-4 54 -40 104q-26 32 -62 48q-67 29 -155 31h-10q-46 -2 -80 -7q-37 -6 -96.5 -33.5t-119.5 -71.5q-167 -122 -225 -309q42 2 58 2h8q77 0 116 -25q52 -35 52 -122v-7q0 -11 -2 -39q-5 -60 -29 -116 q-37 -87 -101 -198q-58 -100 -131 -106h-5q-38 0 -79 44t-62 104q-36 100 -50 259q-5 53 -14 120q-30 187 -56 268q-19 63 -54 111q-46 59 -87 69q-20 7 -44 7q-27 0 -65 -9q-43 -9 -98 -39q-104 -61 -221 -165q-145 -130 -203 -177v-10z" />
<glyph unicode="W" horiz-adv-x="1845" d="M-4 786q0 -190 71.5 -358t199.5 -294q129 -126 297 -196.5t354 -70.5q199 0 371 73.5t299 205.5q125 129 193 299.5t68 357.5v4q0 183 -73 349t-204 294t-300 199t-354 71q-181 0 -347 -70t-296 -197q-131 -129 -205 -301t-74 -366zM92 793q0 182 70 346l395 -1108 q-124 62 -227.5 166.5t-161.5 222.5q-34 68 -55 166.5t-21 206.5zM223 1251q31 67 99 136.5t159 127.5q208 132 434 132q195 0 359 -83q97 -51 217 -153q-85 -12 -121.5 -46.5t-36.5 -98.5v-2q0 -10 1.5 -20.5t2.5 -19t5.5 -20t6 -17.5t8 -19t8.5 -17.5t10.5 -18.5t10 -17 t11.5 -18.5t11 -17.5q25 -41 37.5 -63.5t25 -61.5t12.5 -77q0 -91 -15 -162q-25 -116 -88 -276q-29 -75 -47 -158l-295 886v33l78 2q29 6 36 10q9 3 9 17q0 25 -31 25q-29 -1 -64 -2.5t-38 -1.5q-87 -3 -121 -3q-50 0 -67 1q-40 1 -85 5q-12 1 -38 1h-5q-8 0 -13 1h-6 q-11 0 -17 -1q-9 -1 -14 -2t-10 -9t-5 -22q0 -11 14 -11t21 -4q1 0 10 -1.5t16 -2.5q5 -1 15 -2.5t14 -1.5q17 -4 33 -6l129 -365l-186 -557l-299 897v29q26 2 41 3q18 2 41 7q14 4 24 6q11 2 12 17q0 25 -14 25q-23 -1 -90 -4q-25 0 -105 -4q-28 -2 -45 -2q-18 0 -25 3 q-9 4 -30 4zM684 -12l250 737l266 -725q-72 -46 -250 -51q-13 0 -20 -1t-23 -1q-184 0 -223 41zM1337 57l301 883q19 53 19 131v39q0 35 -1 48q-1 12 -1 28q0 10 2 10q5 0 6 -10q90 -175 90 -400q0 -114 -31 -225q-51 -174 -148 -294q-86 -108 -237 -210z" />
<glyph unicode="X" horiz-adv-x="1773" d="M4 459h412l311 489l-240 473h-399l234 -430zM684 625l416 -734h430l-406 740l639 1128h-407z" />
<glyph unicode="Y" horiz-adv-x="1294" d="M0 588q0 -28 15.5 -48.5t29.5 -20.5q1 0 3 1h1q4 2 13 2q12 0 18 -2q90 12 98 13q58 6 88 10q84 11 213 41q23 6 42 21q21 17 21 38q0 15 -9 22q-11 10 -21 25q-20 12 -75 51q-29 21 -118 79q-165 104 -196 104h-2q-29 -4 -45 -18q-29 -26 -37 -92q-5 -45 -29 -148 q-10 -41 -10 -78zM133 1487q0 -16 5 -29q5 -15 9 -31l351 -542q1 -2 8.5 -10.5t9.5 -11t9 -9.5t10.5 -9.5l10.5 -7.5t12 -7t12 -3.5t14 -1.5q11 0 22 4q27 10 40 52q7 22 7 61l-37 627v6q0 25 -10 45q-15 29 -39 33h-10q-76 0 -207 -43q-27 -11 -68 -20q-43 -9 -67 -17 q-72 -23 -78 -68q0 -4 -2 -10t-2 -8zM229 106q0 -26 35 -54.5t98 -51.5q41 -15 99 -45q44 -24 76 -27q6 -2 10 -2q52 0 71 70l37 397q-1 27 -8 42q-14 28 -43 28q-22 -2 -49 -19l-287 -256q-4 -5 -11 -14t-9.5 -12t-7 -9.5t-5.5 -10t-3 -9.5t-2.5 -12.5t-0.5 -14.5zM770 743 q0 -16 8 -34q19 -19 61 -19q21 0 33 3q10 2 19 5l358 82q45 27 45 66q0 22 -13.5 51t-27.5 49.5t-39 54.5q-17 22 -30 46q-16 25 -31 46q-38 50 -74 50h-6q-5 0 -9.5 -0.5t-9 -1.5t-7.5 -2t-6.5 -3.5t-5.5 -4t-5.5 -4.5t-5.5 -5l-6 -6l-6 -6l-215 -295q-27 -38 -27 -72z M795 498q0 -20 6 -45l178 -347q28 -43 65 -49h9q43 0 75 38q32 37 66 75q6 7 29 32t31 35t22.5 28.5t21 31.5t7.5 25v10q0 19 -8 32.5t-16 19.5t-26 17l-348 136q-30 6 -49 6q-39 0 -55 -17q-8 -11 -8 -28z" />
<glyph unicode="Z" horiz-adv-x="2611" d="M2 1491l27 -111l301 -51l581 -729v-434l-327 -43v-109h1009v144h-315v430l620 569l240 21l27 90h-862v-111h333l-454 -436l-443 608l316 57v105h-1053zM1843 61l182 -61l50 166l-189 61zM1968 358l152 -65l448 706l-416 146z" />
<glyph unicode="a" horiz-adv-x="1781" d="M-17 354q0 -6 9 -14q178 -166 403 -254t484 -88q161 0 331 44q175 44 316 130q40 17 76 53q16 10 16 21q0 5 -5 12q-10 13 -24 13q-10 0 -39 -13q-15 -7 -24 -8q-303 -121 -629 -121q-241 0 -467.5 61t-419.5 172q-10 5 -14 5q-6 0 -11 -6q-2 -6 -2 -7zM475 827 q0 -142 84 -221q81 -76 205 -76q66 0 133 19q88 29 184 121q13 -20 21 -33q7 -12 20 -27q25 -29 68 -65q9 -4 24 -4q13 0 19 8q125 107 147 127q12 10 12 25q0 10 -6 22q-2 2 -13.5 17t-14.5 18.5t-12.5 17t-12.5 20.5t-9 20.5t-8.5 24.5t-4.5 26.5t-2 31.5v303v92 q0 44 -6 88q-15 97 -76 150q-53 48 -132.5 72t-158.5 24h-39q-142 -8 -241 -70q-119 -74 -148 -223q-1 -4 -1 -10q0 -24 25 -33l189 -18q20 0 33 33q26 104 143 118h16q30 0 59 -13t44 -36q25 -33 25 -96q0 -8 -0.5 -23t-0.5 -22v-27q-64 0 -143 -12q-140 -14 -215 -57 q-207 -79 -207 -312zM754 862q0 142 143 180q33 11 70 11h73v-37q0 -11 0.5 -31t0.5 -29q0 -90 -37 -143q-38 -71 -107 -90h-25q-58 0 -88 37t-30 102zM1436 332q0 -10 18 -10q12 1 32 3q27 3 40 5q39 4 86 4h10q47 0 59 -19q6 -9 6 -27q0 -29 -13 -76q-15 -55 -42 -122 q-5 -5 -5 -8q0 -4 7 -7q3 -1 6 -1q7 0 15 8q56 44 91 128q30 72 30 130v8q0 18 -11 29q-6 7 -29 15q-48 12 -92 12q-13 0 -39 -2q-40 -4 -79 -15q-22 -6 -41 -17q-13 -8 -37 -22q-12 -9 -12 -16z" />
<glyph unicode="b" horiz-adv-x="2551" d="M0 754q0 -242 96 -383q113 -168 344 -168q183 0 319 126q136 128 136 312q0 186 -131 323q-63 66 -145 103t-173 37q-78 0 -159 -29l-2 82q0 67 3 131q1 9 1 26q0 55 -10 105h-271l-8 -12v-653zM287 649q0 75 44.5 116.5t119.5 41.5q64 0 109.5 -42.5t45.5 -107.5 q0 -71 -48 -117t-120 -46q-68 0 -109.5 43t-41.5 112zM940 952q0 -182 3 -364q1 -52 1 -156q0 -69 -2 -209h287v1196h-279q-10 -194 -10 -467zM1300 750q0 -148 4 -264q2 -68 2 -105q0 -75 -3 -158h286v860h-278q-11 -154 -11 -333zM1573 1516q0 -77 48 -132t124 -55 q79 0 125.5 50.5t46.5 129.5q0 64 -49 118q-51 54 -115 54q-81 0 -130.5 -43t-49.5 -122zM1645 537q0 -114 8 -244t8 -244q0 -83 -6 -162h287v344q75 -24 159 -24q190 0 319 131q130 133 130 319q0 184 -132 316q-62 61 -144.5 95t-172.5 34q-240 0 -356 -171 q-100 -148 -100 -394zM1950 655q0 69 45 110.5t114 41.5q66 0 107 -39.5t41 -105.5q0 -70 -44 -119t-114 -49q-67 0 -108 46.5t-41 114.5z" />
<glyph unicode="c" horiz-adv-x="2543" d="M4 340h633v1102h-254v-316v-3q0 -12 -7 -12q-1 0 -2.5 0.5t-2.5 0.5h-367v-772zM270 567v318h113v-318h-113zM764 340h254v772h-254v-772zM764 1214h254v228h-254v-228zM1145 10h633v1102h-633v-772h366q1 -1 1 -4q0 -2 -1 -3t-1 -3q0 -3 4 -3q3 0 5 1t4 1q3 0 3 -3v-2 l-1 -2q-1 -3 -1 -9v-75h-379v-228zM1399 580v305h125v-318h-101q0 1 -2 1t-4 -1q-1 -1 -4 -1t-3 4q0 3 1 5q1 1 1 3q0 4 -5 4h-1l-2 -1q-2 -1 -5 -1zM1905 10h635v1102h-635v-772h354q14 0 14 -10v-2v-90h-368v-228zM2159 567v318h114v-318h-114z" />
<glyph unicode="d" horiz-adv-x="2449" d="M-3 389q0 -177 73 -362l1126 325l-309 625q105 31 203 39q62 5 110 5q40 0 79 -3q166 -11 325 -64q159 -52 301 -143l-383 -100l-107 200q-82 17 -168 20h-28q-78 0 -156 -13l260 -527l1126 320q-132 177 -354 295q-100 53 -220 95q-247 86 -605 86h-8h-16 q-196 -2 -419 -40q-10 -1 -13 -3q-2 -1 -7 -1l-119 241l-352 -45l145 -286q-253 -105 -376 -290q-98 -147 -107 -339q-1 -11 -1 -35zM355 504q0 20 3 41q30 174 224 299l166 -340l-373 -105q-20 52 -20 105z" />
<glyph unicode="e" horiz-adv-x="2473" d="M12 10h684q117 0 217 17q114 37 170 84q65 43 111 116q68 113 68 242q0 125 -62 225q-53 85 -172 137q85 45 111 87q75 81 75 223q0 136 -69 229q-119 162 -397 162h-736v-1522zM360 276v404h332q111 0 150 -25q98 -44 98 -161q0 -55 -14 -95.5t-36.5 -64t-57 -37 t-68 -17.5t-78.5 -4h-326zM360 936v334h287q86 0 180 -25q82 -31 82 -141q0 -94 -61 -131q-83 -37 -162 -37h-326zM1380 594q0 -153 38 -264q38 -110 124 -178q156 -127 387 -127q128 0 234 38t187 127.5t93 186.5h-291q-19 -48 -57 -74q-77 -51 -160 -51q-95 0 -155 45 q-113 64 -113 227h797q0 112 -15 215q-18 123 -86 228q-33 54 -77.5 90t-108.5 71q-123 50 -256 50q-247 0 -389 -150q-152 -157 -152 -434zM1612 1315h606v155h-606v-155zM1673 711q18 101 76 170q56 61 172 61q97 0 170 -55q65 -75 72 -176h-490z" />
<glyph unicode="f" horiz-adv-x="2574" d="M0 305q24 2 35 2t33 -2q31 -4 69 -4l58 6q-5 30 -5 45v33v297q0 47 19 72h369v176h-385q2 30 2 44q0 26 -1 39q-4 37 -4 83q0 63 19 90h369v176h-578v-1057zM688 713q0 -205 124 -321q119 -111 325 -111q46 0 96 8q1 7 7.5 11t11 4.5t16.5 1.5q30 2 30 20v4v6q18 3 33 28 q13 21 31 21h6h10v-80h160v801h-160l-2 -16q0 -8 2 -26t2 -28l-18 -26q-32 19 -57 47q-31 31 -56 49q-29 0 -55 10q-27 10 -57 10q-188 0 -315 -110q-134 -116 -134 -303zM864 717q0 31 22 75q21 41 27 72q22 18 45 28q24 10 35 38h49v2q0 5 5.5 9.5t9.5 4.5h129 q10 0 36 -21q19 -16 53 -49q71 -71 71 -92v-176q-1 -2 -19 -21.5t-27 -30.5q-22 -27 -51 -52q-62 -55 -127 -55q-112 0 -185 80q-73 78 -73 188zM1714 305h31h45q60 0 70 -6l14 23q-2 8 -2 18q0 29 18 29q12 0 20 -12q8 -14 17 -19q96 -66 205 -66q195 0 317 136 q115 129 115 329q0 180 -154 288q-68 47 -152.5 72t-168.5 25q-36 0 -64 -16q-29 -16 -65 -16h-6q-20 -18 -29 -28q-14 -15 -33 -20l-18 15v305h-160v-1057zM1890 608v176q17 19 34 47q15 23 33 45q39 47 93 54v2q0 5 6 9.5t10 4.5h146q12 -27 63 -33q45 -50 97 -129v-6v-32 q0 -24 16 -25q-13 -112 -73 -188q-69 -87 -175 -87q-87 0 -144 40.5t-106 121.5z" />
<glyph unicode="g" horiz-adv-x="2342" d="M226 302q0 -184 158 -282q142 -88 364 -88q269 0 429 105q179 118 179 356q0 77 -26 137q-48 104 -156 189q-56 44 -93 76q-23 19 -45 45q-25 25 -25 58q0 28 19 55q32 42 104 95q32 24 55.5 51.5t48.5 77.5q33 67 33 172v16q0 37 -3 74q-6 74 -37 126q-19 29 -45 49 q-39 26 -62 43q21 15 58 20q12 2 35.5 5t34.5 4q28 4 45 8t33.5 16t21.5 31h-57q-88 0 -201 5q-62 3 -120 3q-63 0 -101.5 -1.5t-106.5 -12.5t-128 -33q-94 -34 -150.5 -78t-91.5 -105q-62 -107 -62 -238q0 -24 1 -35q4 -73 40 -146q88 -187 377 -187h30q2 -20 2 -28 q0 -18 -3 -35q-2 -18 -2 -27q0 -15 3 -28q5 -16 18 -26q9 -7 27 -23q26 -24 26 -51q0 -8 -1 -13q-274 -5 -422 -76q-192 -92 -203 -278q-1 -9 -1 -26zM433 326q0 9 1 13q2 33 15 67q36 85 129 138.5t217 63.5q13 1 38 1q87 0 173 -33.5t133 -86.5q37 -45 48 -119 q3 -18 3 -35q0 -54 -27 -102q-41 -68 -126.5 -114.5t-186.5 -58.5q-35 -5 -64 -5q-196 0 -297 119q-17 21 -30 48q-26 46 -26 104zM558 1387q0 50 10 91q15 70 55.5 117t105.5 56q18 2 29 2q19 0 44 -5q69 -15 121 -72q54 -60 89 -147q28 -71 28 -151q0 -31 -4 -56 q-8 -64 -36 -113q-57 -100 -160 -100q-17 0 -35 3q-66 11 -127 72q-46 45 -82 122q-29 62 -36 134q-2 32 -2 47zM1495 1286q29 -1 89 -1q59 0 89 1q20 1 59 1q60 0 115 -3v-350h103v352h356v103q-29 1 -89 1t-90 -1q-15 -1 -45 -1q-60 0 -132 5v352h-99q-5 -72 -5 -131 q0 -30 1 -45q1 -30 1 -90t-1 -90h-352v-103z" />
<glyph unicode="h" horiz-adv-x="2383" d="M8 643q0 -282 140 -467q152 -203 427 -203q116 0 189 27q89 33 158 129v-127h401v1708h-401v-567q-65 105 -162 137q-55 18 -172 18h-19q-265 0 -420 -199q-141 -181 -141 -456zM360 618q0 174 69 283q79 125 241 125q157 0 235 -124q66 -105 66 -279q0 -182 -64 -285 q-79 -127 -237 -127q-150 0 -237 129q-73 109 -73 278zM1524 1366l274 -94l-174 -232l158 -116l166 243l176 -243l155 116l-176 232l277 94l-68 182l-284 -104v266h-201v-266l-254 104z" />
<glyph unicode="i" horiz-adv-x="2148" d="M-11 813q1 -25 1 -74q39 -332 209 -562q160 -217 432 -343q-1 12 -1 35q0 109 22 216q11 65 50 226q16 65 33 132q16 73 31 128q1 4 14 48q6 19 6 34v6q0 16 -8 35q-8 16 -12 33q-11 49 -11 96q0 2 -0.5 5.5t-0.5 5.5t0.5 5t0.5 5q6 122 67 198q28 35 67 52t74 17 q7 0 21 -2q42 -8 66 -32q52 -51 52 -141v-12q-4 -53 -21 -109q-2 -6 -34 -108q-12 -38 -19 -57q-19 -56 -24 -118q0 -2 -0.5 -6.5t-0.5 -6.5q0 -55 38 -99q48 -58 135 -58q1 0 2 -1q96 0 173 72q71 67 113 178q36 94 52 229q4 31 4 69q0 42 -4 78q-14 157 -133 256 q-122 100 -312 100q-129 0 -232 -48q-95 -44 -150.5 -103t-90.5 -134q-52 -112 -52 -232q0 -27 3 -56q7 -72 49 -131q9 -14 24 -29t15 -32q0 -12 -8 -30t-15 -38q-1 -5 -3.5 -16t-3.5 -15t-3 -11t-4.5 -10t-7 -6.5t-10.5 -5.5q-10 -2 -15 -2q-23 0 -40 16q-21 19 -42 32 q-49 41 -75 79q-61 96 -72 236q-1 17 -1 48v9q0 133 59 252q52 111 165 215q90 84 202.5 130.5t266.5 58.5q38 3 73 3q248 0 433 -143q223 -172 240 -417q3 -41 3 -78q0 -267 -137 -467q-74 -108 -176 -168q-124 -72 -264 -72q-76 2 -139 31t-105 74q-10 21 -15 21 q-3 0 -5 -5q-30 -97 -55 -208q-26 -109 -66 -193q-21 -39 -32 -58q-17 -30 -23 -55q152 -41 292 -41h26q154 4 288 45q256 78 455 272q287 288 309 713q2 26 2 42q0 14 -2 46q-26 420 -309 703q-136 136 -305.5 216t-391.5 103h-131q-418 -39 -690 -311q-132 -133 -210 -297 q-94 -196 -105 -389q-1 -16 -1 -49v-25z" />
<glyph unicode="j" horiz-adv-x="2543" d="M8 827q0 -148 41 -252q39 -114 119 -200q76 -79 190 -135q112 -50 250 -50q111 0 197.5 30t177.5 89q71 49 145 123q8 9 60.5 63t81.5 85q75 -88 137 -148q71 -73 154 -123q179 -119 372 -119q135 1 247.5 50t189.5 137q157 183 157 457q0 130 -40.5 245t-116.5 199 q-159 180 -435 180q-112 0 -202 -33q-102 -39 -177 -92q-78 -54 -151 -131q-96 -106 -135 -155q-106 120 -140 155q-76 80 -151 131q-76 54 -176 92q-91 33 -207 33q-265 0 -434 -182q-154 -174 -154 -449zM334 819q-1 75 30 142t92 111t140 44q64 0 129 -31q61 -24 127 -73 q79 -58 211 -195q-42 -48 -92 -98q-43 -43 -111 -90q-49 -35 -125 -66q-66 -24 -129 -24h-3q-126 0 -197 77q-72 83 -72 203zM1475 817q29 31 94 96q41 46 108 99q54 45 119 73q62 31 133 31q124 0 199.5 -84.5t75.5 -208.5t-71 -204t-194 -80q-79 0 -135 22q-69 28 -123 64 q-101 68 -206 192z" />
<glyph unicode="k" horiz-adv-x="2613" d="M4 594q0 -98 39 -168q36 -71 100.5 -121.5t141.5 -71.5q64 -19 170 -24q96 0 174 31q168 68 241 231q0 2 1 2t1 2q53 -145 213 -223q82 -35 177 -35q78 0 143 25q60 19 119 59q54 38 102 86q15 17 48 50q16 16 50 52q25 -28 48 -50q32 -34 49 -52q60 -56 108 -86 q60 -40 121 -59q62 -25 141 -25q93 0 174 35t132 98q53 60 81 144q31 78 31 176q0 96 -31 174q-29 80 -81 137q-111 127 -304 127q-81 0 -143 -25q-64 -19 -123 -63q-91 -65 -203 -201q-50 61 -98 109q-113 118 -229 155q-65 25 -146 25q-98 0 -174 -35q-62 -25 -131 -94 q-51 -61 -78 -135q-20 43 -59 94q-107 121 -277 121q-77 -1 -131 -21.5t-108 -70.5l-2 2l47 276h504v203h-680l-121 -672h223q40 53 81.5 75.5t105.5 22.5q50 0 88 -18q75 -35 108 -121q12 -43 12 -90q0 -46 -14 -88q-21 -52 -41 -74q-65 -71 -153 -71t-138 49 q-52 46 -63 133h-246zM1067 659q0 84 51.5 145.5t132.5 61.5q47 0 92 -20q36 -15 89 -51q48 -37 79 -70q50 -48 68 -68q-13 -17 -30 -33l-33 -36q-33 -30 -78 -62q-52 -32 -88 -47q-46 -18 -90 -18q-91 0 -142 55q-51 62 -51 143zM1870 657q13 17 31 34l34 34q27 32 76 70 q48 36 84 51q45 20 92 20q88 0 141.5 -59.5t53.5 -144.5q0 -89 -50.5 -145t-136.5 -56q-92 0 -180 61q-23 16 -78 64q-35 33 -67 71z" />
<glyph unicode="l" horiz-adv-x="2457" d="M9 506q0 17 1 26q0 7 1.5 26t2.5 30q2 37 7 130q2 62 6 134q2 24 2 33q0 18 18 18q10 0 14 -7q9 -15 9 -54v-27q3 -45 7 -135t7 -135q2 -38 2 -55q0 -47 -4 -80q-7 -75 -12 -134q-1 -16 -3 -46q-1 -27 -20 -27q-20 0 -20 51v6q-6 74 -9 113q-7 64 -8 108q-1 8 -1 25z M215 535q0 18 2 60q0 9 1.5 30.5t2.5 33.5q3 45 7 154q1 36 8 158q2 30 2 39t6.5 15t15.5 6q10 0 15 -8q10 -19 10 -63v-32q8 -109 18 -320q1 -19 1 -58q0 -68 -19 -255v-26q0 -36 -9 -51q-7 -10 -19 -10q-16 0 -19 23q-1 15 -5 45q-6 88 -10 133q-7 74 -8 126zM428 519v32 q1 128 6 253q2 43 4.5 127.5t3.5 125.5q2 16 2 30v33v30q0 19 5 29t20 13q1 1 6 1h5q20 -2 20 -36v-35q17 -410 20 -567q0 -20 1 -30q0 -39 -5 -91q-4 -41 -12 -125v-29q0 -41 -10 -60q-8 -11 -21 -11q-20 0 -27 33q-4 12 -4 32v33q-5 79 -10 123q-4 39 -4 89zM642 517 q0 23 1 34q0 196 8 383q1 44 3 93q2 66 3 97v25q0 16 1 25t6.5 17t15.5 11q4 1 11 1q22 0 27 -22t5 -65q4 -209 12 -416q1 -15 2.5 -43t1.5 -41q1 -13 1 -40q0 -28 -1 -41q-1 -45 -7 -129q-5 -75 -9 -134q0 -30 -5.5 -46.5t-25.5 -16.5h-4q-28 1 -30 31q-2 32 -3 65 q-6 82 -9 124q-4 40 -4 88zM860 543q0 52 1 82q1 15 1.5 46.5t0.5 47.5q1 16 1 48.5t1 49.5q1 33 1 94q0 49 2 139q0 20 1.5 66.5t2.5 71.5q2 52 2 74q0 34 33 38q25 0 35 -16q8 -11 8 -63q0 -28 -1 -41q-1 -14 -1 -33q1 -92 3 -212q2 -141 5 -210q3 -68 3 -137 q0 -47 -1 -70q-1 -92 -8 -209q0 -47 -5 -72q-6 -30 -31 -30h-7q-15 2 -22.5 11.5t-9 18t-3.5 31.5q-12 211 -12 275zM1080 276v24v24q1 17 1 49v944v39q0 17 2 25.5t12.5 18.5t31.5 17q36 11 59 15q53 15 127 20q11 1 31 1t30 -1q241 -15 402 -176q165 -165 186 -391 q37 15 90 23q23 4 52 4q22 0 44 -3q81 -10 154 -61q138 -93 149 -277q1 -3 1 -8l-1 -16v-2q-15 -181 -147 -273q-66 -50 -150 -63q-42 -5 -81 -5h-15q-35 1 -110 1q-243 0 -366 1t-372 1q-15 0 -55 -2q-3 0 -8.5 -0.5t-7.5 -0.5q-41 0 -51 30q-6 15 -8 42z" />
<glyph unicode="m" horiz-adv-x="2594" d="M-2 295h260v1012h-260v-1012zM371 295h227v620h8l45 -309l45 -309h166q22 154 42 314q20 159 42 311h10v-625h228v1012h-342q-16 -113 -30 -222q-14 -112 -30 -221h-6q-5 34 -15.5 108t-16.5 113q-22 146 -33 220h-340v-1012zM1296 293h344q60 0 119 6q50 7 88 39 q58 49 58 160v514q0 63 -7 125q-14 102 -110 143q-32 16 -73 22q-58 8 -177 8h-51q-51 -1 -154 -1q-14 0 -19 1h-2q-6 0 -16 -5v-1012zM1561 465v670q16 2 22 2q57 0 57 -66v-518q0 -10 -2 -26q-9 -53 -34 -56q-21 -2 -43 -6zM2001 295h231q12 9 12 24v3v3q0 13 13 23 q28 -25 47 -38q38 -28 80 -30h14q22 0 35 1q49 4 93 39t50 77q11 62 11 80q0 171 1 255v84q0 114 -1 171q-5 109 -99 141q-40 13 -84 13q-16 0 -24 -1q-53 -4 -101 -46l-9 -9q-4 -4 -8 -4q-1 0 -7 2v224h-254v-1012zM2255 473q2 158 2 238q0 79 -2 239q0 27 16 37q7 1 19 1 q23 0 31.5 -8.5t9.5 -41.5v-463q-2 -24 -15 -43q-9 -4 -21 -4q-8 0 -24 2q-16 16 -16 43z" />
<glyph unicode="n" horiz-adv-x="2322" d="M10 842q0 -315 158 -583q156 -264 414 -414q269 -158 583 -158q235 0 446 89.5t371 249.5q159 159 248.5 370.5t89.5 447.5q0 314 -157 582q-156 264 -414 414q-273 159 -584 159q-314 0 -583 -158q-259 -152 -414 -416q-158 -269 -158 -583zM106 842q0 213 82.5 405 t230.5 340q147 147 340 229t406 82t405 -82t340 -228q147 -147 229.5 -339t82.5 -405t-81.5 -406t-228.5 -340q-148 -148 -341 -230.5t-406 -82.5t-405 82.5t-339 230.5q-148 147 -231.5 339.5t-83.5 404.5zM488 303q0 -10 1 -15q5 -53 43 -91q65 -70 169 -70h6h12 q65 1 117 30q129 68 129 189v690q315 96 632 115v-487q-51 16 -70 17h-12q-23 0 -55 -5q-124 -16 -192 -119q-26 -43 -26 -89v-9q0 -7 2 -23q12 -66 67 -106q60 -45 150 -45h16q125 6 204 108q37 49 37 115q-2 342 -2 507v507v32q-25 -2 -41 -3l-39 -3q-21 -2 -61 -4.5 t-59 -3.5q-56 -3 -247 -31q-110 -17 -261 -64q-61 -20 -138 -40q-15 -4 -19.5 -11.5t-4.5 -23.5v-864q-7 4 -13 4q-4 0 -10 2q-37 12 -76 12q-27 0 -61 -8q-56 -13 -103 -45q-44 -30 -69.5 -76.5t-25.5 -91.5z" />
<glyph unicode="o" horiz-adv-x="2050" d="M0 158q0 -148 118 -258q111 -103 253 -103q231 -1 693 -1q461 0 691 1q150 0 236 131q54 85 59 207v938h-473q49 -163 49 -296q0 -70 -13 -126q-37 -171 -196 -295q-142 -109 -320 -122q-28 -2 -41 -2q-157 0 -286 85q-212 141 -259 333q-16 64 -16 138q0 134 56 285 h-549v-55q0 -211 3 -421q1 -39 1 -115q0 -153 -6 -306v-18zM1 1429q0 -32 1 -48q4 -76 4 -173q10 0 15 -1q4 -1 14 -1q196 0 295 -1h100q132 0 199 1q28 0 55 27q153 130 339 144q28 2 42 2q170 -2 305 -99q109 -77 240 -77h7q20 0 30 1q26 2 41 2h43h319v291v27q0 8 -2 24 q-17 131 -95 211q-82 84 -192 84h-1396q-62 0 -122 -24q-125 -51 -193 -157q-30 -47 -39.5 -102.5t-9.5 -130.5zM606 805q0 -92 36.5 -176t100.5 -147q136 -134 322 -134q93 0 176.5 35.5t145.5 99.5q133 135 133 326q0 92 -35 175.5t-98 146.5t-146.5 98t-175.5 35 q-190 0 -324 -134q-64 -64 -99.5 -148t-35.5 -177zM1411 1392v7v254q1 63 64 63h258q38 0 51 -27.5t13 -78.5q0 -14 -1 -42.5t-1 -42.5q0 -88 -1 -132q0 -59 -65 -64h-128q-42 0 -126 2q-64 0 -64 61z" />
<glyph unicode="p" horiz-adv-x="1806" d="M92 104h449l112 512h318q230 0 404 138q178 140 227 374q14 73 14 129q0 164 -103 273q-61 63 -145.5 96t-173.5 33h-762zM268 -84h449l106 510h324q230 0 402 136q176 138 229 376q16 67 16 129q0 51 -12 95q-26 95 -80 157q28 -59 36 -132q1 -12 1 -37q0 -59 -15 -128 q-48 -236 -225 -374q-176 -138 -405 -138h-320l-110 -514h-375zM715 915l96 426h221q56 0 96 -29.5t56 -76.5q3 -16 7 -43q1 -6 1 -19q0 -8 -2 -26q-6 -5 -6 -19q-25 -85 -94 -147q-69 -61 -154 -66q-2 -1 -4 -1h-1q-1 1 -5 1h-211z" />
<glyph unicode="q" horiz-adv-x="1949" d="M2 29q35 -117 152 -152h542q-1 15 -1 45v24q1 12 1 36t1 36v23q0 67 -9 111q23 -11 49 -26q29 -17 52 -26q33 -15 62 -15q26 0 52 13q52 29 54 222v27q0 76 -4 137q-5 93 -5 141q0 217 -1 314v90q0 101 1 138q48 -2 73 -2q45 0 95 3q15 1 45 1q65 0 115 -10v-573 q73 -22 149 -22q22 0 33 1q89 6 165 41q78 37 129.5 98t66.5 142v168q-33 199 -237 304q-151 78 -347 78q-45 0 -81 -4q-115 -10 -214.5 -51.5t-167.5 -111.5q-46 -46 -77 -120.5t-39 -157.5q-3 -25 -3 -49q0 -154 88 -232q-66 -46 -121 -98q-56 -55 -122 -101 q-75 84 -112 165q-41 86 -48 210q-2 42 -2 61q0 161 59 306.5t175 254.5q120 112 285.5 173t358.5 61q323 0 605 -162v92q-38 120 -154 154h-1511q-119 -38 -152 -154v-1603zM1184 -123h481q103 30 154 146v358q-92 -66 -257 -81q-33 -4 -75 -4q-43 0 -76 4q-78 8 -135 34 q1 -32 1 -94v-44q-2 -71 -10 -127q-22 -135 -83 -192z" />
<glyph unicode="r" horiz-adv-x="1740" d="M0 1032q2 -60 2 -86v-323v-88q0 -43 10 -64q14 -34 46 -52t69 -18t68.5 17t46.5 49q-5 0 -5 2q0 1 1 2h6q10 21 10 65v82v324q0 40 2 90v12q0 28 -8 54q-16 40 -50 61q-32 20 -67 20h-3q-13 0 -19 -1q-34 -5 -60 -25q-49 -39 -49 -110v-11zM300 366q0 -40 7 -67 q27 -99 171 -99q25 0 52 3v-166q0 -26 -2 -80q0 -9 -1 -14q0 -73 41 -109q43 -37 90 -37h5q9 0 13 1q29 1 57 20q31 23 40 59.5t9 97.5v62v85q0 46 4 81h168v-166q0 -28 -2 -86q0 -10 -1 -15q0 -35 10 -61q14 -41 48.5 -61t69.5 -20q56 0 92 39q39 43 39 105q0 11 -1 16 q-3 42 -3 83v85q0 46 4 81q26 -3 49 -3q57 0 96 16q28 11 46 29t25.5 41t9.5 41.5t2 44.5q0 17 -1 26q-3 58 -3 114v647h-1127q-2 -2 -2 -10v-637q0 -62 -4 -114q-1 -12 -1 -32zM301 1208h1135q-7 163 -90 279q-66 89 -199 172q14 18 23 39q8 22 18 39q0 2 6 8q13 22 27 49 q17 27 17 33q0 10 -13 14q-3 1 -7 1q-11 0 -15 -10q-5 -14 -9 -24q-6 -10 -20 -34t-21 -37q-10 -19 -41 -68q-88 53 -242 53q-155 0 -249 -49q-43 70 -76 135q-5 7 -13 25q-4 10 -13 10q-3 0 -9 -2q-9 -6 -9 -16t13 -31q16 -34 39 -69q21 -33 39 -68q-132 -73 -203 -172 q-84 -118 -88 -277zM560 1456q0 16 13 35q10 9 23 10q3 1 9 1q26 0 44 -18q8 -11 8 -30q0 -33 -22 -41q-9 -4 -20 -4q-35 0 -52 33q-3 8 -3 14zM1081 1450v6q0 40 39 45q10 2 15 2q16 0 27.5 -12t12.5 -30q1 -20 -12.5 -37t-32.5 -17q-22 0 -34 12.5t-15 30.5zM1481 1025 q2 -56 2 -79v-323v-90q0 -38 10 -62q15 -34 46.5 -53.5t65.5 -19.5q14 0 29 3q21 3 51 23t41 47q15 39 15 154q0 33 -2 91t-2 72q0 16 2 76t2 93q0 109 -15 151q-15 34 -48.5 52t-67.5 19q-12 0 -19 -1q-34 -3 -62.5 -26.5t-39.5 -49.5q-8 -30 -8 -63v-14z" />
<glyph unicode="s" horiz-adv-x="2166" d="M0 608q0 -20 15 -33.5t32 -13.5h297l225 391h-522q-16 0 -31.5 -15.5t-15.5 -31.5v-297zM170 -90q0 -26 18 -26q9 0 19 10l168 108q12 12 12 24q0 14 -18 31l-131 74q-5 4 -14 4q-12 0 -20.5 -7t-8.5 -19zM257 226q0 -6 1 -10q5 -20 25 -30l127 -75q13 -5 23 -5 q31 0 44 25l596 1028q6 12 6 26q0 28 -26 44l-127 74q-13 5 -25 5q-31 0 -43 -26l-596 -1028q-5 -13 -5 -24v-4zM864 561h539l-184 391h-129zM1015 1760q3 -35 20 -89q31 -99 95 -245q30 -71 97 -216q29 -69 47 -108q6 -13 30 -67t38 -86q36 -83 75 -171q76 -170 140 -282 q41 -72 83 -72q8 0 15 3t23.5 9t23.5 8q36 13 60 43q14 17 14 37q0 18 -13 37q-11 21 -32 63q-19 35 -60 116q-82 157 -162 303q-43 77 -81 147q-41 75 -70 117q-55 88 -98 164q-125 218 -180 292q-32 42 -47 42q-4 0 -5 -1q-13 -6 -13 -33v-11zM1655 952q54 -98 76 -142 q36 -72 63 -116q18 -40 29 -59q9 -18 16 -33q9 -9 10 -20q1 -14 6 -21h261q47 0 47 47v297q0 19 -12.5 33t-34.5 14h-461zM1680 320q0 -16 12 -29l71 -121q20 -27 48 -27q12 0 28 7l53 30q25 19 25 50q0 15 -6 30l-62 117q-10 15 -29 25q-7 4 -17 4q-9 0 -19 -5l-74 -39 q-25 -11 -29 -32q-1 -3 -1 -10zM1831 56q0 -7 2 -21q5 -23 22 -49q30 -44 112 -81q26 -12 38.5 -18t25.5 -17t15 -22q3 39 3 74q0 60 -9 107q-6 30 -18 57q-26 56 -86 56h-1q-28 0 -71 -23q-2 -2 -7 -7.5t-9 -9.5q-17 -19 -17 -46z" />
<glyph unicode="t" horiz-adv-x="1169" d="M12 606q0 -274 121 -432q138 -174 393 -174h478q89 0 139 98q18 43 18 107q0 31 -6 71q-14 108 -133 140h-420q-73 0 -119 26.5t-63 71.5q-29 66 -29 293v49h633q55 1 95 56.5t40 123.5q0 81 -38 138t-128 65h-604v268q0 94 -90 133q-41 21 -96 21q-72 0 -131.5 -41 t-59.5 -113v-901z" />
<glyph unicode="u" horiz-adv-x="835" d="M-106 975h241v-627q0 -130 29 -184q13 -57 88 -123q78 -65 162 -92q24 -6 45 -12q13 -5 43 -11q48 -8 104 -8q120 0 203 21q70 18 207 75v285q-124 -86 -273 -86q-77 0 -131 33q-22 16 -41 38q-22 25 -31.5 46t-11.5 63q-2 60 -2 123v459h418v321h-418v412h-247 q-22 -140 -66 -223q-53 -101 -121 -158q-76 -57 -198 -98v-254z" />
<glyph unicode="v" horiz-adv-x="2252" d="M-6 -23q0 -41 20 -55q20 19 66 26q47 8 67 25q41 0 83 17q39 16 83 16q70 30 149 46q72 14 150 38v-250q140 0 414 -2t412 -2q72 0 108 21q-10 15 -31 64q-45 98 -99 243q-58 149 -88 244q-15 46 -15 65q-11 1 -17 8.5t-7 11.5t-3 18q-7 39 -22 44v5q0 21 -12 39 q-16 20 -17 44l10 12q133 0 267 -6q58 -2 90 -2q84 0 178 8q39 4 127 41q179 77 260.5 209.5t81.5 331.5q0 48 -4 84q-17 6 -17 31v37q-83 147 -198 266q-49 13 -95 38q-15 7 -45 22.5t-45 23.5h-282q-2 -7 -6 -11.5t-12.5 -7.5t-11.5 -3.5l-15 -2.5q-36 -5 -39 -26 q-1 0 -3.5 0.5t-3.5 0.5q-14 0 -39 -16q-29 -18 -42 -18h-13q-36 -35 -107 -127q-60 -77 -124 -107q-31 16 -69 66l-14 17.5t-15.5 19.5t-15.5 15.5t-19 14.5q-17 27 -29 40q-20 21 -72 61q-22 17 -34 33q-31 5 -50 14q-9 4 -27 11t-22 9q-63 23 -198 23q-60 0 -103 -6 q-56 -10 -181 -86q-136 -83 -136 -125q0 -8 1 -11q1 -4 1 -12l-35 -16q-66 -118 -66 -301q0 -262 267 -465q52 -6 67 -35q5 1 14 1q17 0 33 -8q20 -11 45 -11q9 0 13 1t12 1q-1 -2 -1 -4q0 -15 24 -15q38 0 49 -1q30 -1 30 -38v-55v-7q0 -63 -20 -79q-154 29 -300 75 t-300 75q0 -216 -1 -323t-1 -323zM512 1196q0 40 23 74.5t61 34.5q45 0 78 -34q33 -33 33 -76q0 -23 -11 -56q-39 -33 -96 -33q-38 0 -70 16q-18 33 -18 74zM1610 1188q0 102 112 102h21q6 0 20 -2q35 -66 35 -104q0 -10 -1 -14q-1 -5 -1 -15q-37 -43 -92 -43t-92 43 q0 11 -1 17q-1 5 -1 16z" />
<glyph unicode="w" horiz-adv-x="2332" d="M0 953q0 -57 12 -115q33 -178 187 -301q126 -102 262 -109q55 -6 96 -47l565 -565q8 -8 13 -11l10 -10q242 242 362 363q199 200 363 362q-38 38 -66 70q8 11 11 12q276 225 495 397q23 17 23 45v768q0 9 -1 14t-1 17q-19 -14 -29 -24l-338 -357q-15 -16 -103.5 -110.5 t-135.5 -143.5q-73 -77 -240 -254q-15 -15 -25 -15q-9 0 -24 15q-57 59 -258 260q-16 12 -39 35q-54 -65 -113 -129q-24 36 -58 92q-30 47 -63 86q-152 170 -377 170q-36 0 -65 -4q-135 -13 -243 -92t-164 -190t-56 -229zM73 945q0 23 1 34q7 100 56 187t131.5 146t184.5 74 q36 6 75 6q50 0 97 -10q83 -18 154 -63q147 -95 189 -275q11 -52 11 -99q0 -83 -32 -165q-4 -12 -4 -19q0 -9 6 -20q27 -45 81 -133l81 -135q0 -3 10 -14q384 406 580 615q79 84 275 293t304 323q4 -23 4 -37v-559v-3q0 -23 -22 -40q-137 -114 -280 -229 q-172 -139 -281 -228q-192 -156 -287 -233q-192 -156 -287 -234q-12 -9 -23 -9q-13 0 -26 13q-130 122 -195 181q-128 116 -196 180q-20 17 -43 17q-5 0 -35 -5q-41 -6 -79 -6q-39 0 -77 6q-74 12 -140 47q-138 74 -200 223q-33 86 -33 171z" />
<glyph unicode="x" horiz-adv-x="2037" d="M1 1386q0 -200 87 -389q366 -780 1157 -1128q71 -29 147 -42q64 -11 152 -32q104 6 197 44t161 100q136 127 136 297v18q-8 147 -131 176q-87 25 -164 37q-81 13 -162 41q-62 20 -111 20q-25 0 -42 -4q-68 -12 -121 -86q-52 -67 -107 -67q-56 0 -123 39 q-279 164 -461 444q-37 58 -56 94q-15 29 -17 59v5q2 28 22.5 57.5t73.5 89.5q18 21 37 40q20 20 32 40q18 28 18 58q0 21 -9 46q-46 129 -127 388q-22 65 -66 89q-42 23 -105 23h-5h-11q-144 -5 -263 -117q-124 -118 -136 -262q-3 -39 -3 -78z" />
<glyph unicode="y" horiz-adv-x="1609" d="M4 2h105q31 0 55 10q16 9 35 31q15 24 16 53q6 31 6 76q0 22 -1 33q-2 53 -19 82q-27 43 -88 43h-109v-328zM12 1724q0 -14 1 -21q1 -8 1 -22q3 -17 11 -32q6 -17 20 -23q18 -8 39 -8t33 6q14 9 20 18q8 18 8 27q5 18 5 33h-44q0 -19 -2 -29q0 -10 -4 -14q-4 -10 -15 -10 h-3q-6 0 -12 2q-8 4 -15 32v76q2 10 2 15q0 4 2 10q8 18 21 18q26 0 26 -43h41v9q0 22 -10 38q-6 13 -18 19q-11 8 -35 8q-25 0 -39 -8q-16 -13 -20 -23q-10 -16 -11 -33q0 -14 -1 -21q-1 -8 -1 -24zM16 897h326v84h-199q3 15 17 35q10 16 37 43l61 55q26 26 37 39 q19 21 27 39q4 8 7 22q4 14 7 21q4 17 4 47q0 70 -39 109q-40 36 -121 36q-84 0 -125 -41q-39 -36 -39 -112v-21h103q0 14 1 20t1 19q6 29 8 35q17 31 51 31q51 0 51 -68v-18q0 -7 -2 -17q0 -9 -8 -30q-3 -4 -7 -12q-3 -7 -9 -15q-7 -8 -29 -29l-43 -41q-35 -30 -51 -53 q-21 -23 -37 -53q-14 -23 -22 -59q-7 -29 -7 -66zM18 463h39v147l54 -147h47v211h-39v-146l-51 146h-50v-211zM72 51v232h26q20 -1 31 -9q17 -8 25 -55q0 -14 1 -22q1 -9 1 -27q0 -21 -1 -30q-1 -10 -1 -27q-8 -42 -25 -56q-13 -6 -29 -6h-28zM182 1724q0 -14 1 -21 q1 -8 1 -22q3 -17 11 -32q6 -17 20 -23q18 -8 39 -8q45 0 57 31q3 4 7 14q6 22 6 40v21v24q0 14 -7 40q-2 8 -6 14q-12 31 -57 31q-25 0 -39 -8q-16 -13 -20 -23q-10 -16 -11 -33q0 -14 -1 -21q-1 -8 -1 -24zM205 463h43v211h-43v-211zM225 1690v71q2 8 2 13q0 13 11 24 q7 4 16 4q16 0 22 -18q7 -17 7 -60v-18q0 -19 -7 -41q-6 -16 -22 -16q-9 0 -16 4q-11 10 -11 23q0 4 -2 14zM289 2h186v55h-121v88h111v54h-111v77h117v54h-182v-328zM291 545q0 -7 2 -21q0 -19 9.5 -36t21.5 -21q14 -8 38 -8q18 0 35 6q11 6 21 18q8 18 8 27q4 19 4 33h-43 q0 -19 -2 -27q-7 -24 -14 -24q-5 -3 -11 -3q-8 0 -12 3q-7 4 -14 34q0 12 -1 18t-1 21q0 13 1 20q1 6 1 19q0 27 12 39q7 4 14 4q14 0 19.5 -10.5t5.5 -34.5h43q0 15 -2 25q0 11 -8 24q-14 27 -56 27q-24 0 -38 -8q-12 -4 -23 -23q-4 -7 -6 -16q-4 -16 -4 -40v-24v-22z M362 1622h44v82h22q12 0 27 4q24 6 32 31q6 10 6 24t-4 27l-3 9q-2 6 -5 9q-1 2 -4 5l-4 4q-5 5 -10 6q-13 6 -27 6h-74v-207zM375 1145q0 -25 2 -65q6 -86 33 -136q21 -30 52 -42.5t81 -12.5h5q104 0 136 84q16 41 21 90q4 48 4 106q0 60 -9 119q-10 54 -27.5 83.5 t-49.5 41.5q-30 14 -80 14h-5q-104 0 -139 -86q-15 -37 -20 -90q-4 -47 -4 -106zM406 1735v63h16q29 0 29 -33q-1 -30 -27 -30h-18zM469 463h43v61l16 25l43 -86h47l-63 121l57 90h-45l-55 -84v84h-43v-211zM483 1075v45v58v48q0 16 2 38q7 64 27 84q14 10 31 10 q34 0 45 -33q12 -32 12 -87v-46v-57v-46q0 -16 -2 -38q-6 -68 -27 -86q-16 -9 -28 -9q-35 1 -47 33q-13 31 -13 86zM514 1829l53 -125v-82h43v82l54 125h-46l-28 -80h-2l-27 80h-47zM518 92q0 -94 105 -94h4q49 0 80 22q30 25 30 76q0 14 -4 29q0 9 -8 22q-18 19 -51 37 l-51 21q-23 11 -27 20q-6 9 -6 25q0 8 2 14q0 6 6 12q1 4 10 9q14 4 21 4q14 0 26 -13q9 -16 9 -36h63v10q0 18 -8 39q-8 15 -21 28q-19 12 -32 15q-18 6 -41 6q-48 0 -74.5 -24.5t-26.5 -71.5q0 -43 21 -64q7 -11 26 -20q23 -12 37 -17q7 -3 17 -5q15 -2 30 -17 q13 -13 13 -33q-1 -21 -12.5 -31t-26.5 -10q-30 0 -35 14q-7 5 -8 15v30h-68v-12zM639 545q0 -7 2 -21q5 -28 10 -35q13 -30 60 -30q22 0 34 6q24 13 31 45q2 10 2 17v16h-43q0 -19 -2 -27q0 -10 -6 -16q-5 -8 -8 -8q-1 -3 -10 -3t-13 3q-12 12 -12 34q-2 14 -2 39v39 q2 10 2 15q0 9 6 17l2 2q1 3 2 5q8 4 15 4q14 0 20 -10q4 -11 4 -35h43q0 15 -2 25q0 16 -8 24q-6 11 -18 21q-12 6 -37 6q-47 0 -60 -31q-12 -24 -12 -56v-24v-22zM692 1622h43v88h23q24 0 24 -27v-41q0 -3 1 -4t1 -6q0 -6 4 -10h46v2q-4 2 -9 12v10q0 1 -2 15v27 q-4 19 -10 25.5t-22 10.5q15 3 26 17q8 16 8 35q0 27 -14 41q-16 12 -41 12h-78v-207zM735 1739v59h21q28 0 28 -29q0 -16 -8 -24q-10 -6 -24 -6h-17zM752 1272h106v-375h109v530h-80q-8 -45 -38 -65.5t-87 -20.5h-10v-69zM797 2h65v328h-65v-328zM803 463l55 211h53 l58 -211h-45l-11 43h-55l-10 -43h-45zM864 543h43l-20 94h-2zM870 1622h43v207h-43v-207zM932 130q0 -12 2 -34q10 -65 45 -88q19 -10 49 -10q25 0 40.5 7.5t29.5 27.5v-31h49v178h-107v-49h43v-33q0 -27 -14 -41q-12 -12 -27 -12q-24 0 -36 35q-7 13 -7 41q-2 16 -2 25v28 q2 60 11 88q9 27 34 27q11 0 17 -6q4 -1 6 -5q1 -3 6 -8q6 -10 6 -18q2 -10 2 -19h64q0 105 -103 105q-33 0 -51 -12q-22 -10 -35 -31q-22 -40 -22 -85v-40v-40zM956 1702q0 -9 2 -23q1 -5 4 -18q2 -10 5 -14q7 -15 20 -21q11 -8 31 -8q14 0 24 6q13 1 19 16v-18h31v111h-68 v-31h29v-21q0 -5 -1 -7t-1 -7q-5 -9 -9 -10q-8 -8 -16 -8t-14 6q-13 13 -13 41q-2 10 -2 17v18q1 38 9 55q6 16 20 16q6 0 10 -4q6 -2 8 -8q5 -5 5 -10q2 -6 2 -13h39q-1 66 -64 66q-21 0 -32 -5.5t-23 -21.5q-4 -7 -10 -32q-5 -12 -5 -22v-23v-27zM987 639h45v-176h43v176 h47v35h-135v-35zM1096 897h325v84h-200q3 5 7 17q2 6 11 18q14 23 37 43l59 55q25 21 39 39q18 22 25 39q9 16 14 43q6 19 6 47q0 145 -159 145q-84 0 -125 -41q-39 -36 -39 -112v-21h102v20q0 5 2 19q6 29 8 35q9 15 19 21q10 10 30 10q54 0 54 -68v-18q0 -7 -2 -17 q-5 -19 -9 -30q-14 -22 -16 -27l-29 -29l-43 -41q-35 -30 -51 -53q-24 -23 -37 -53q-28 -53 -28 -125zM1135 1622h41v92h49v-92h41v207h-41v-80h-49v80h-41v-207zM1155 463h123v35h-80v57h72v35h-72v49h76v35h-119v-211zM1212 2h62v229l82 -229h74v328h-60v-224h-2l-80 224 h-76v-328zM1298 1794h45v-172h43v172h46v35h-134v-35zM1305 520q0 -61 67 -61q74 0 74 63q0 11 -2 19q0 8 -6 14q-12 14 -33 25l-33 14q-15 6 -16 12q-4 4 -4 17v8q0 7 12 14q3 0 4 1t6 1q11 0 19 -8q6 -11 6 -25h41v7q0 15 -6 26q-3 9 -13 19q-19 12 -33 12h-14 q-65 0 -65 -62q0 -32 12 -41q5 -8 18 -14l4 -1q4 -2 7 -3q7 -2 14 -6l18 -6q10 -5 11 -8q8 -7 8 -21q0 -27 -25 -27q-14 1 -22 9q-6 13 -6 24v6h-43v-8z" />
<glyph unicode="z" horiz-adv-x="2617" d="M8 651q0 -87 43 -176q42 -94 125.5 -181t190.5 -153q228 -141 452 -141h6q114 0 202.5 43t135.5 121l13 16l-345 195l-8 -19q-28 -55 -114 -55q-77 0 -152 48q-84 54 -110 118l-19 45q-15 33 -15 57q0 25 13 47q28 46 102 46q37 0 96 -26q77 -34 85 -38l16 -10l137 227 l-10 23l-236 514q-10 20 -10 39q0 14 8 28q20 29 70 29q45 0 90 -24.5t70 -61.5l598 -1301l2 -2h180q73 0 209 2q76 0 248 2q169 0 287 54q242 109 242 365q0 133 -73 292q-71 152 -186 277.5t-262 214.5q-145 88 -308 135t-324 47q-8 0 -13 -2h-248l-20 43 q-74 111 -221 189q-144 77 -287 77q-100 0 -174.5 -46.5t-94.5 -119.5l-372 191l364 -797q-108 -1 -198 -44q-87 -41 -135 -115t-50 -166v-7zM1436 1021q0 20 8 41q26 60 147 60q140 0 269 -82q133 -85 186 -200l86 -185q25 -53 25 -102q-1 -3 -1 -9q-2 -52 -27 -90 q-57 -85 -192 -85q-115 -1 -162 -3q-31 -1 -55 -1l-47 96l-211 461q-18 41 -24 76q-2 16 -2 23z" />
<glyph unicode="&#xe000;" horiz-adv-x="1845" d="M0 0v1845h1845v-1845h-1845z" />
</font>
</defs>
</svg>
