<?xml version="1.0" standalone="no"?>
<!DOCTYPE svg PUBLIC "-//W3C//DTD SVG 1.1//EN" "http://www.w3.org/Graphics/SVG/1.1/DTD/svg11.dtd" >
<svg xmlns="http://www.w3.org/2000/svg">
<metadata>
This is a custom SVG webfont generated by Font Squirrel.
Copyright   : Copyright c 2010 by Ryoichi Tsunekawa All rights reserved
Designer    : Ryoichi Tsunekawa
Foundry     : Ryoichi Tsunekawa
</metadata>
<defs>
<font id="BebasNeueRegular" horiz-adv-x="811" >
<font-face units-per-em="2048" ascent="1638" descent="-410" />
<missing-glyph horiz-adv-x="317" />
<glyph unicode=" "  horiz-adv-x="317" />
<glyph unicode="&#x09;" horiz-adv-x="317" />
<glyph unicode="&#xa0;" horiz-adv-x="317" />
<glyph unicode="!" horiz-adv-x="389" d="M82 836v598h225v-598l-28 -519h-168zM86 0v217h217v-217h-217z" />
<glyph unicode="&#x22;" horiz-adv-x="665" d="M82 1434h217l-33 -422h-153zM367 1434h217l-33 -422h-154z" />
<glyph unicode="#" horiz-adv-x="839" d="M31 410l16 159h100l39 375h-102l16 160h103l35 330h184l-35 -330h133l35 330h184l-34 -330h104l-16 -160h-105l-39 -375h105l-17 -159h-104l-43 -410h-184l43 410h-134l-43 -410h-184l43 410h-100zM332 569h133l39 375h-133z" />
<glyph unicode="$" d="M70 365v98h213v-113q0 -139 116.5 -139t116.5 139q0 68 -32.5 127.5t-82 99t-105.5 89.5l-106 100q-49 49 -81.5 128t-32.5 175q0 297 237 350v107h185v-107q242 -49 241 -350v-45h-213v59q0 141 -112 141h-1q-112 0 -112 -141q0 -80 45 -146.5t110 -117.5l130 -108 q65 -56 110 -145t45 -201q0 -147 -62.5 -237.5t-180.5 -115.5v-104h-185v104q-244 49 -243 353z" />
<glyph unicode="%" horiz-adv-x="1284" d="M70 743v471q0 111 55 170.5t161.5 59.5t162 -59.5t55.5 -170.5v-471q0 -111 -55.5 -170t-162 -59t-161.5 59t-55 170zM213 733q0 -90 73.5 -90t73.5 90v492q0 90 -73.5 90t-73.5 -90v-492zM287 0l565 1434h133l-565 -1434h-133zM780 219v471q0 111 55.5 170.5t162 59.5 t161.5 -59.5t55 -170.5v-471q0 -111 -55 -170t-161.5 -59t-162 59t-55.5 170zM924 209q0 -90 73.5 -90t73.5 90v491q0 90 -73.5 90t-73.5 -90v-491z" />
<glyph unicode="&#x26;" horiz-adv-x="847" d="M84 311v146q0 231 156 301q-156 66 -156 295v26q0 354 336 355h258v-205h-254q-115 0 -115 -139v-89q0 -82 34 -116.5t101 -34.5h99v160h225v-160h59v-205h-59v-471q0 -117 25 -174h-230q-16 45 -20 113q-59 -129 -209 -129q-250 0 -250 327zM309 330q0 -141 117 -142 q111 0 117 125v332h-86q-78 0 -113 -42t-35 -140v-133z" />
<glyph unicode="'" horiz-adv-x="368" d="M76 1434h217l-33 -422h-154z" />
<glyph unicode="(" horiz-adv-x="514" d="M96 313v807q0 170 73 242t243 72h69v-185h-55q-55 0 -79.5 -27.5t-24.5 -101.5v-807q0 -74 24.5 -101.5t79.5 -27.5h55v-184h-69q-170 0 -243 71.5t-73 241.5z" />
<glyph unicode=")" horiz-adv-x="514" d="M33 0v184h55q55 0 80 28t25 101v807q0 74 -25 101.5t-80 27.5h-55v185h69q170 0 243 -72t73 -242v-807q0 -170 -73 -241.5t-243 -71.5h-69z" />
<glyph unicode="*" d="M4 1075l57 174l306 -153l-54 338h185l-54 -338l306 153l57 -174l-336 -57l240 -240l-148 -108l-157 303l-158 -303l-148 108l240 240z" />
<glyph unicode="+" d="M51 637v160h275v276h159v-276h275v-160h-275v-281h-159v281h-275z" />
<glyph unicode="," horiz-adv-x="380" d="M82 0v217h217v-194l-98 -228h-92l59 205h-86z" />
<glyph unicode="-" horiz-adv-x="552" d="M72 614v205h409v-205h-409z" />
<glyph unicode="." horiz-adv-x="380" d="M82 0v217h217v-217h-217z" />
<glyph unicode="/" horiz-adv-x="780" d="M10 0l565 1434h195l-565 -1434h-195z" />
<glyph unicode="0" d="M63 344v746q0 172 88.5 266t254 94t254 -94t88.5 -266v-746q0 -172 -88.5 -266t-254 -94t-254 94t-88.5 266zM289 330q0 -141 117 -142q116 0 116 142v774q0 141 -116.5 141t-116.5 -141v-774z" />
<glyph unicode="1" d="M221 1094v159q82 0 134.5 28t71.5 60.5t42 92.5h152v-1434h-226v1094h-174z" />
<glyph unicode="2" d="M82 0v176q0 117 46 214t111 170l131 144q66 70 112 166t46 211q0 92 -29.5 128t-86.5 36q-117 0 -117 -141v-154h-213v140q0 174 86 267t250 93t250 -93t86 -267q0 -131 -50.5 -247t-120 -198t-137 -153.5t-109.5 -144.5q-33 -57 -33 -111q0 -16 3 -31h426v-205h-651z " />
<glyph unicode="3" d="M70 344v119h213v-133q0 -141 116 -142q57 0 87 36t30 126v113q0 98 -35 140t-112 42h-76v205h88q68 0 101.5 34.5t33.5 116.5v80q0 92 -29.5 128t-87.5 36q-117 0 -116 -141v-92h-213v78q0 174 86 267t249.5 93t249.5 -93t86 -267v-37q0 -229 -157 -295q158 -70 157 -301 v-113q0 -174 -86 -267t-249.5 -93t-249.5 93t-86 267z" />
<glyph unicode="4" d="M29 260v205l409 969h246v-969h107v-205h-107v-260h-225v260h-430zM236 465h223v530z" />
<glyph unicode="5" d="M72 344v119h213v-133q0 -139 117 -140q116 0 116 140v315q0 141 -116.5 141t-116.5 -141v-43h-213l41 832h594v-205h-392l-18 -342q63 104 197 104q250 0 249 -327v-320q0 -174 -86 -267t-249.5 -93t-249.5 93t-86 267z" />
<glyph unicode="6" d="M68 344v733q0 373 344 373q164 0 250 -93t86 -267v-37h-213v51q0 141 -117 141q-63 0 -94 -39t-31 -137v-262q59 127 209 127q250 0 250 -328v-262q0 -172 -88.5 -266t-254 -94t-253.5 94t-88 266zM293 330q0 -139 117 -140q116 0 116 140v258q0 141 -116.5 141 t-116.5 -141v-258z" />
<glyph unicode="7" d="M68 1229v205h675v-197l-331 -1237h-226l330 1229h-448z" />
<glyph unicode="8" d="M53 1044v46q0 172 91.5 266t261 94t261 -94t91.5 -266v-46q0 -211 -140 -288q139 -78 140 -299v-113q0 -172 -91.5 -266t-261 -94t-261 94t-91.5 266v113q0 221 140 299q-139 76 -140 288zM279 350q0 -162 127 -162q125 0 126 162v133q0 162 -126.5 162t-126.5 -162v-133 zM279 1001q0 -152 126 -152l1 1q126 0 126 151v80q0 164 -126.5 164t-126.5 -164v-80z" />
<glyph unicode="9" d="M59 827v263q0 172 88.5 266t254 94t253.5 -94t88 -266v-734q0 -372 -342 -372h-2q-164 0 -250 93t-86 267v37h213v-51q0 -141 117 -142q63 0 94 39t31 138v262q-59 -127 -209 -127q-250 0 -250 327zM285 846q0 -141 116.5 -141t116.5 141v258q0 139 -116.5 139 t-116.5 -139v-258z" />
<glyph unicode=":" horiz-adv-x="380" d="M82 0v217h217v-217h-217zM82 780v217h217v-217h-217z" />
<glyph unicode=";" horiz-adv-x="380" d="M82 0v217h217v-194l-98 -228h-92l59 205h-86zM82 780v217h217v-217h-217z" />
<glyph unicode="&#x3c;" d="M61 637v160l668 245v-161l-459 -164l459 -164v-162z" />
<glyph unicode="=" d="M72 471v160h667v-160h-667zM72 803v160h667v-160h-667z" />
<glyph unicode="&#x3e;" d="M82 391v162l459 164l-459 164v161l668 -245v-160z" />
<glyph unicode="?" horiz-adv-x="737" d="M41 948v142q0 174 84 267t248 93t248 -93t84 -267q0 -125 -42 -228.5t-91.5 -160t-91.5 -137.5t-42 -167q0 -45 8 -80h-200q-12 37 -13 89q0 104 39 191t84 141.5t84 150.5t39 215q0 141 -112.5 141t-112.5 -141v-156h-213zM236 0v217h217v-217h-217z" />
<glyph unicode="@" horiz-adv-x="1411" d="M49 594q0 193 48 358.5t139.5 291.5t238 199t330.5 73q303 0 436 -164t133 -439q0 -178 -39 -312t-102.5 -204.5t-127.5 -103.5t-130 -33q-168 0 -180 135q-60 -123 -187 -123h-12q-188 5 -188 239q0 36 4 77l22 207q16 152 80 229q61 74 160 74h10q127 -2 168 -127 l12 119h197l-62 -592q-1 -6 -1 -11q0 -40 42 -41q80 0 122 142.5t42 320.5q0 201 -100 316.5t-307 115.5q-270 0 -412.5 -200.5t-142.5 -556.5q0 -254 119.5 -394.5t357.5 -140.5q244 0 424 139l-17 -196q-172 -115 -419 -115q-334 0 -496 191.5t-162 525.5zM610 598 q-2 -16 -2 -30q0 -101 90 -105h6q43 0 71 29q30 32 38 100l21 194q1 11 1 21q0 42 -20 65q-24 29 -70 29h-6q-45 0 -73 -29q-29 -30 -37 -100z" />
<glyph unicode="A" horiz-adv-x="833" d="M23 0l229 1434h330l229 -1434h-227l-39 260h-277l-39 -260h-206zM297 455h217l-108 725z" />
<glyph unicode="B" horiz-adv-x="831" d="M82 0v1434h340q174 0 254 -81t80 -249v-51q0 -221 -146 -289q168 -66 168 -307v-117q0 -166 -87 -253t-255 -87h-354zM307 205h129q59 0 88 31.5t29 109.5v125q0 98 -33.5 136t-111.5 38h-101v-440zM307 850h88q68 0 101.5 35t33.5 116v80q1 148 -114 148h-109v-379z" />
<glyph unicode="C" horiz-adv-x="790" d="M63 344v746q0 174 86.5 267t250 93t249.5 -93t86 -267v-140h-213v154q0 141 -116.5 141t-116.5 -141v-774q1 -140 117 -140q117 0 116 140v205h213v-191q0 -174 -86 -267t-249.5 -93t-250 93t-86.5 267z" />
<glyph unicode="D" horiz-adv-x="835" d="M82 0v1434h356q336 0 336 -355v-725q0 -354 -336 -354h-356zM307 205h127q115 0 115 139v746q0 139 -115 139h-127v-1024z" />
<glyph unicode="E" horiz-adv-x="753" d="M82 0v1434h614v-205h-389v-400h309v-204h-309v-420h389v-205h-614z" />
<glyph unicode="F" horiz-adv-x="704" d="M82 0v1434h596v-205h-371v-432h291v-205h-291v-592h-225z" />
<glyph unicode="G" horiz-adv-x="798" d="M63 344v746q0 174 86.5 267t250 93t249.5 -93t86 -267v-140h-213v154q0 141 -116.5 141t-116.5 -141v-774q0 -139 117 -140q116 0 116 140v264h-102v205h315v-455q0 -174 -86 -267t-249.5 -93t-250 93t-86.5 267z" />
<glyph unicode="H" horiz-adv-x="874" d="M82 0v1434h225v-615h256v615h230v-1434h-230v614h-256v-614h-225z" />
<glyph unicode="I" horiz-adv-x="389" d="M82 0v1434h225v-1434h-225z" />
<glyph unicode="J" horiz-adv-x="524" d="M20 0v205q25 -2 78 -2q129 0 129 137v1094h226v-1078q0 -360 -324 -360q-72 0 -109 4z" />
<glyph unicode="K" horiz-adv-x="847" d="M82 0v1434h225v-625l295 625h225l-313 -639l313 -795h-231l-219 571l-70 -131v-440h-225z" />
<glyph unicode="L" horiz-adv-x="694" d="M82 0v1434h225v-1229h371v-205h-596z" />
<glyph unicode="M" horiz-adv-x="1107" d="M80 0v1434h313l166 -1018l154 1018h313v-1434h-213v1028l-156 -1028h-213l-168 1014v-1014h-196z" />
<glyph unicode="N" horiz-adv-x="874" d="M80 0v1434h282l232 -859v859h201v-1434h-232l-280 1038v-1038h-203z" />
<glyph unicode="O" d="M63 344v746q0 172 88.5 266t254 94t254 -94t88.5 -266v-746q0 -172 -88.5 -266t-254 -94t-254 94t-88.5 266zM289 330q1 -141 117 -142q117 0 116 142v774q0 141 -116.5 141t-116.5 -141v-774z" />
<glyph unicode="P" horiz-adv-x="772" d="M82 0v1434h332q336 0 336 -355v-186q0 -354 -336 -354h-107v-539h-225zM307 743h107q55 0 82.5 31t27.5 105v215q0 74 -27.5 104.5t-82.5 30.5h-107v-486z" />
<glyph unicode="Q" d="M63 1090q0 172 88.5 266t254 94t254 -94t88.5 -266v-746q0 -121 -43 -201q12 -30 60 -30h3h20v-201h-30q-145 0 -195 98q-71 -26 -151 -26h-6q-166 0 -254.5 94t-88.5 266v746zM289 330q0 -141 116 -142h1q116 0 116 142v774q0 141 -116.5 141t-116.5 -141v-774z" />
<glyph unicode="R" horiz-adv-x="823" d="M82 0v1434h340q174 0 254 -81t80 -249v-113q0 -221 -148 -291q150 -63 150 -305v-221v-9q0 -110 24 -165h-229q-20 61 -21 176v225q0 98 -34.5 140.5t-112.5 42.5h-78v-584h-225zM307 788h88q68 0 101.5 35t33.5 117v141q1 148 -114 148h-109v-441z" />
<glyph unicode="S" horiz-adv-x="765" d="M47 344v88h213v-102q0 -140 117 -140h1q116 0 116 140q0 80 -46 150t-110 128l-130 120q-66 63 -110.5 156t-44.5 206q0 174 84 267t248 93t248 -93t84 -267v-46h-213v60q0 141 -112.5 141t-112.5 -141q0 -59 24.5 -112.5t63.5 -96.5t86 -85t93 -88t85 -98.5t63.5 -124 t24.5 -155.5q0 -174 -86 -267t-250 -93t-250 93t-86 267z" />
<glyph unicode="T" horiz-adv-x="729" d="M16 1229v205h697v-205h-236v-1229h-225v1229h-236z" />
<glyph unicode="U" horiz-adv-x="815" d="M72 342v1092h225v-1106q1 -140 117 -140q117 0 116 140v1106h213v-1092q0 -174 -86 -267t-249.5 -93t-249.5 93t-86 267z" />
<glyph unicode="V" horiz-adv-x="823" d="M23 1434h227l172 -1170l172 1170h207l-221 -1434h-336z" />
<glyph unicode="W" horiz-adv-x="1153" d="M31 1434h219l121 -1131l108 1131h217l113 -1139l117 1139h196l-159 -1434h-299l-82 764l-82 -764h-310z" />
<glyph unicode="X" horiz-adv-x="880" d="M31 0l252 737l-236 697h234l170 -529l174 529h209l-236 -697l252 -737h-238l-184 567l-186 -567h-211z" />
<glyph unicode="Y" d="M8 1434h236l172 -654l172 654h215l-285 -959v-475h-225v475z" />
<glyph unicode="Z" horiz-adv-x="757" d="M47 0v201l428 1028h-407v205h639v-201l-428 -1028h428v-205h-660z" />
<glyph unicode="[" horiz-adv-x="514" d="M96 0v1434h373v-185h-147v-1065h147v-184h-373z" />
<glyph unicode="\" horiz-adv-x="780" d="M10 1434h195l565 -1434h-195z" />
<glyph unicode="]" horiz-adv-x="514" d="M45 0v184h148v1065h-148v185h373v-1434h-373z" />
<glyph unicode="^" d="M41 799l285 635h159l285 -635h-180l-184 430l-185 -430h-180z" />
<glyph unicode="_" horiz-adv-x="1024" d="M0 -20h1024v-164h-1024v164z" />
<glyph unicode="`" horiz-adv-x="512" d="M90 1737h232l139 -228h-162z" />
<glyph unicode="a" horiz-adv-x="833" d="M23 0l229 1434h330l229 -1434h-227l-39 260h-277l-39 -260h-206zM297 455h217l-108 725z" />
<glyph unicode="b" horiz-adv-x="831" d="M82 0v1434h340q174 0 254 -81t80 -249v-51q0 -221 -146 -289q168 -66 168 -307v-117q0 -166 -87 -253t-255 -87h-354zM307 205h129q59 0 88 31.5t29 109.5v125q0 98 -33.5 136t-111.5 38h-101v-440zM307 850h88q68 0 101.5 35t33.5 116v80q1 148 -114 148h-109v-379z" />
<glyph unicode="c" horiz-adv-x="790" d="M63 344v746q0 174 86.5 267t250 93t249.5 -93t86 -267v-140h-213v154q0 141 -116.5 141t-116.5 -141v-774q1 -140 117 -140q117 0 116 140v205h213v-191q0 -174 -86 -267t-249.5 -93t-250 93t-86.5 267z" />
<glyph unicode="d" horiz-adv-x="835" d="M82 0v1434h356q336 0 336 -355v-725q0 -354 -336 -354h-356zM307 205h127q115 0 115 139v746q0 139 -115 139h-127v-1024z" />
<glyph unicode="e" horiz-adv-x="753" d="M82 0v1434h614v-205h-389v-400h309v-204h-309v-420h389v-205h-614z" />
<glyph unicode="f" horiz-adv-x="704" d="M82 0v1434h596v-205h-371v-432h291v-205h-291v-592h-225z" />
<glyph unicode="g" horiz-adv-x="798" d="M63 344v746q0 174 86.5 267t250 93t249.5 -93t86 -267v-140h-213v154q0 141 -116.5 141t-116.5 -141v-774q0 -139 117 -140q116 0 116 140v264h-102v205h315v-455q0 -174 -86 -267t-249.5 -93t-250 93t-86.5 267z" />
<glyph unicode="h" horiz-adv-x="874" d="M82 0v1434h225v-615h256v615h230v-1434h-230v614h-256v-614h-225z" />
<glyph unicode="i" horiz-adv-x="389" d="M82 0v1434h225v-1434h-225z" />
<glyph unicode="j" horiz-adv-x="524" d="M20 0v205q25 -2 78 -2q129 0 129 137v1094h226v-1078q0 -360 -324 -360q-72 0 -109 4z" />
<glyph unicode="k" horiz-adv-x="847" d="M82 0v1434h225v-625l295 625h225l-313 -639l313 -795h-231l-219 571l-70 -131v-440h-225z" />
<glyph unicode="l" horiz-adv-x="694" d="M82 0v1434h225v-1229h371v-205h-596z" />
<glyph unicode="m" horiz-adv-x="1107" d="M80 0v1434h313l166 -1018l154 1018h313v-1434h-213v1028l-156 -1028h-213l-168 1014v-1014h-196z" />
<glyph unicode="n" horiz-adv-x="874" d="M80 0v1434h282l232 -859v859h201v-1434h-232l-280 1038v-1038h-203z" />
<glyph unicode="o" d="M63 344v746q0 172 88.5 266t254 94t254 -94t88.5 -266v-746q0 -172 -88.5 -266t-254 -94t-254 94t-88.5 266zM289 330q1 -141 117 -142q117 0 116 142v774q0 141 -116.5 141t-116.5 -141v-774z" />
<glyph unicode="p" horiz-adv-x="772" d="M82 0v1434h332q336 0 336 -355v-186q0 -354 -336 -354h-107v-539h-225zM307 743h107q55 0 82.5 31t27.5 105v215q0 74 -27.5 104.5t-82.5 30.5h-107v-486z" />
<glyph unicode="q" d="M63 1090q0 172 88.5 266t254 94t254 -94t88.5 -266v-746q0 -121 -43 -201q12 -30 60 -30h3h20v-201h-30q-145 0 -195 98q-71 -26 -151 -26h-6q-166 0 -254.5 94t-88.5 266v746zM289 330q0 -141 116 -142h1q116 0 116 142v774q0 141 -116.5 141t-116.5 -141v-774z" />
<glyph unicode="r" horiz-adv-x="823" d="M82 0v1434h340q174 0 254 -81t80 -249v-113q0 -221 -148 -291q150 -63 150 -305v-221v-9q0 -110 24 -165h-229q-20 61 -21 176v225q0 98 -34.5 140.5t-112.5 42.5h-78v-584h-225zM307 788h88q68 0 101.5 35t33.5 117v141q1 148 -114 148h-109v-441z" />
<glyph unicode="s" horiz-adv-x="765" d="M47 344v88h213v-102q0 -140 117 -140h1q116 0 116 140q0 80 -46 150t-110 128l-130 120q-66 63 -110.5 156t-44.5 206q0 174 84 267t248 93t248 -93t84 -267v-46h-213v60q0 141 -112.5 141t-112.5 -141q0 -59 24.5 -112.5t63.5 -96.5t86 -85t93 -88t85 -98.5t63.5 -124 t24.5 -155.5q0 -174 -86 -267t-250 -93t-250 93t-86 267z" />
<glyph unicode="t" horiz-adv-x="729" d="M16 1229v205h697v-205h-236v-1229h-225v1229h-236z" />
<glyph unicode="u" horiz-adv-x="815" d="M72 342v1092h225v-1106q1 -140 117 -140q117 0 116 140v1106h213v-1092q0 -174 -86 -267t-249.5 -93t-249.5 93t-86 267z" />
<glyph unicode="v" horiz-adv-x="823" d="M23 1434h227l172 -1170l172 1170h207l-221 -1434h-336z" />
<glyph unicode="w" horiz-adv-x="1153" d="M31 1434h219l121 -1131l108 1131h217l113 -1139l117 1139h196l-159 -1434h-299l-82 764l-82 -764h-310z" />
<glyph unicode="x" horiz-adv-x="880" d="M31 0l252 737l-236 697h234l170 -529l174 529h209l-236 -697l252 -737h-238l-184 567l-186 -567h-211z" />
<glyph unicode="y" d="M8 1434h236l172 -654l172 654h215l-285 -959v-475h-225v475z" />
<glyph unicode="z" horiz-adv-x="757" d="M47 0v201l428 1028h-407v205h639v-201l-428 -1028h428v-205h-660z" />
<glyph unicode="{" horiz-adv-x="526" d="M23 625v184q63 0 85.5 25.5t26.5 97.5l17 274q8 113 68.5 170.5t158.5 57.5h115v-185h-33q-55 0 -80 -31.5t-29 -113.5l-10 -205q-8 -149 -133 -182q125 -33 133 -182l10 -205q4 -82 29 -114t80 -32h33v-184h-115q-98 0 -158.5 57.5t-68.5 169.5l-17 275 q-4 72 -26.5 97.5t-85.5 25.5z" />
<glyph unicode="|" horiz-adv-x="1024" d="M430 -133v1700h184v-1700h-184z" />
<glyph unicode="}" horiz-adv-x="526" d="M33 1249v185h114q98 0 159 -57.5t69 -170.5l16 -274q4 -72 26.5 -97.5t86.5 -25.5v-184q-63 0 -86 -26t-27 -97l-16 -275q-8 -113 -68.5 -170t-159.5 -57h-114v184h33q55 0 79.5 32t28.5 114l10 205q8 149 133 182q-125 33 -133 182l-10 205q-4 82 -28.5 113.5 t-79.5 31.5h-33z" />
<glyph unicode="~" d="M16 680q70 104 126.5 144t117.5 40q59 0 155.5 -62.5t137.5 -62.5q33 0 58.5 23.5t76.5 93.5l107 -111q-70 -102 -125.5 -139t-118.5 -37q-59 0 -155.5 62.5t-137.5 62.5q-35 0 -60.5 -23t-74.5 -93z" />
<glyph unicode="&#xa1;" horiz-adv-x="389" d="M82 0v598l29 518h168l28 -518v-598h-225zM86 1217v217h217v-217h-217z" />
<glyph unicode="&#xa2;" d="M74 426v582q0 297 239 350v106h185v-104q248 -49 247 -352v-99h-213v113q0 141 -116.5 141t-116.5 -141v-610q0 -139 117 -140q116 0 116 140v163h213v-149q0 -305 -247 -352v-105h-185v107q-240 49 -239 350z" />
<glyph unicode="&#xa3;" d="M61 0v197q82 0 137.5 62.5t57.5 170.5h-166v174h137q-14 39 -56 123t-65.5 167t-23.5 196q0 174 84 267t248 93t247.5 -93t83.5 -267v-142h-213v156q0 141 -112.5 141t-112.5 -141q0 -113 24.5 -200t62.5 -167t50 -133h248v-174h-233q-14 -145 -115 -225h387v-205h-670z " />
<glyph unicode="&#xa5;" d="M14 1434h236l166 -633l166 633h215l-262 -879h170v-113h-187v-92h187v-112h-187v-238h-225v238h-187v112h187v92h-187v113h168z" />
<glyph unicode="&#xa6;" horiz-adv-x="1024" d="M430 -133v727h184v-727h-184zM430 840v727h184v-727h-184z" />
<glyph unicode="&#xa7;" d="M72 643q0 170 141 250q-141 92 -141 266q0 129 86 210t245.5 81t245.5 -76t86 -203v-73h-213v43q0 55 -29.5 89t-82.5 34q-113 0 -113 -115q0 -45 45 -79t109.5 -61.5t130 -64.5t110.5 -109.5t45 -177.5q0 -170 -143 -251q143 -88 143 -265q0 -129 -86 -210t-245.5 -81 t-245.5 76t-86 203v102h213v-71q0 -55 29.5 -89t82.5 -34q113 0 113 115q0 45 -45 78.5t-110.5 61t-130 64.5t-109.5 110t-45 177zM287 651q0 -57 31.5 -92t93.5 -65q49 8 79.5 52t30.5 103q0 94 -127 156q-49 -8 -78.5 -51.5t-29.5 -102.5z" />
<glyph unicode="&#xa8;" horiz-adv-x="512" d="M2 1509v197h197v-197h-197zM313 1509v197h197v-197h-197z" />
<glyph unicode="&#xa9;" horiz-adv-x="1507" d="M41 716.5q0 317.5 204 525.5t509 208t508.5 -208t203.5 -525.5t-203.5 -525t-508.5 -207.5t-509 207.5t-204 525zM188 717q0 -256 161 -423t404.5 -167t404.5 167t161 423t-161 423t-404.5 167t-404.5 -167t-161 -423zM514 516v397q0 254 231.5 254t231.5 -254v-73h-148 v86q0 98 -79.5 98t-79.5 -98v-418q0 -96 79.5 -96t79.5 96v123h148v-115q0 -250 -231.5 -250t-231.5 250z" />
<glyph unicode="&#xaa;" horiz-adv-x="569" d="M61 446v142h435v-142h-435zM61 879v8q0 137 76 194.5t215 61.5v94q0 76 -57 76q-70 0 -70 -88v-47h-135v39q0 227 211 227q195 0 195 -227v-535h-121l-8 98q-35 -108 -144 -108h-2q-160 0 -160 207zM205 909v-18q0 -88 74 -88q68 0 73 74v159q-147 -6 -147 -127z" />
<glyph unicode="&#xab;" horiz-adv-x="727" d="M33 719l127 526h202l-124 -526l124 -559h-202zM365 719l127 526h202l-125 -526l125 -559h-202z" />
<glyph unicode="&#xac;" d="M51 637v160h709v-441h-160v281h-549z" />
<glyph unicode="&#xad;" horiz-adv-x="552" d="M72 614v205h409v-205h-409z" />
<glyph unicode="&#xae;" horiz-adv-x="1507" d="M41 716.5q0 317.5 204 525.5t509 208t508.5 -208t203.5 -525.5t-203.5 -525t-508.5 -207.5t-509 207.5t-204 525zM188 717q0 -256 161 -423t404.5 -167t404.5 167t161 423t-161 423t-404.5 167t-404.5 -167t-161 -423zM528 279v876h238q231 0 231 -229v-19 q0 -156 -106 -202q106 -43 106 -211v-95q1 -79 19 -120h-160q-14 37 -14 122v95q0 70 -24.5 98.5t-80.5 28.5h-53v-344h-156zM684 766h64q94 0 94 104v37q0 105 -84 105h-74v-246z" />
<glyph unicode="&#xaf;" horiz-adv-x="512" d="M20 1518v159h472v-159h-472z" />
<glyph unicode="&#xb0;" horiz-adv-x="466" d="M31 1247q0 84 59.5 143.5t143 59.5t143 -59.5t59.5 -143.5t-59.5 -143.5t-143 -59.5t-143 59.5t-59.5 143.5zM133 1247q0 -41 30 -70.5t70.5 -29.5t70.5 29.5t30 70.5t-30 71t-70.5 30t-70.5 -30t-30 -71z" />
<glyph unicode="&#xb1;" d="M72 356v160h254v164h-254v160h254v233h159v-233h254v-160h-254v-164h254v-160h-667z" />
<glyph unicode="&#xb2;" horiz-adv-x="573" d="M86 719v110q0 74 28.5 136.5t70.5 108.5l84 92q42 46 71 108.5t29 134.5q0 102 -74 102t-74 -90v-96h-135v88q0 227 213 227t213 -227q0 -100 -48 -191.5t-104.5 -144.5t-98.5 -115q-34 -49 -34 -93q0 -11 2 -21h271v-129h-414z" />
<glyph unicode="&#xb3;" horiz-adv-x="573" d="M74 1362v47q0 229 213 229t213 -229v-23q0 -145 -101 -186q100 -43 101 -190v-72q0 -229 -213 -229t-213 229v74h135v-84q0 -90 73.5 -90t73.5 104v70q0 63 -21.5 88.5t-70.5 25.5h-49v129h55q86 0 86 99v51q0 104 -73.5 104t-73.5 -90v-57h-135z" />
<glyph unicode="&#xb4;" horiz-adv-x="512" d="M55 1509l140 228h221l-209 -228h-152z" />
<glyph unicode="&#xb6;" d="M29 893v186q0 354 336 355h364v-1567h-164v1403h-110v-1403h-164l4 676q-127 0 -196.5 96t-69.5 254z" />
<glyph unicode="&#xb7;" horiz-adv-x="380" d="M82 608v217h217v-217h-217z" />
<glyph unicode="&#xb8;" horiz-adv-x="512" d="M53 -162h152v-16q0 -41 45 -41q51 0 51 49q0 53 -74 53h-20v146h98v-109q78 0 115 -21.5t37 -74.5q0 -76 -51.5 -100.5t-155.5 -24.5q-197 0 -197 119v20z" />
<glyph unicode="&#xb9;" horiz-adv-x="409" d="M51 1413v100q74 0 105.5 29t54.5 86h94v-909h-143v694h-111z" />
<glyph unicode="&#xba;" horiz-adv-x="573" d="M70 446v142h434v-142h-434zM70 899v318q0 109 56 168t160.5 59t161 -59.5t56.5 -167.5v-318q0 -109 -56.5 -168t-161 -59t-160.5 59t-56 168zM213 891q0 -88 73.5 -88t73.5 88v334q0 88 -73.5 88t-73.5 -88v-334z" />
<glyph unicode="&#xbb;" horiz-adv-x="727" d="M33 160l125 559l-125 526h203l126 -526l-126 -559h-203zM365 160l124 559l-124 526h202l127 -526l-127 -559h-202z" />
<glyph unicode="&#xbc;" horiz-adv-x="1284" d="M133 1219v100q74 0 105.5 28.5t54.5 86.5h94v-910h-143v695h-111zM328 0l565 1434h133l-565 -1434h-133zM760 164v131l260 614h156v-614h67v-131h-67v-164h-142v164h-274zM889 295h145v336z" />
<glyph unicode="&#xbd;" horiz-adv-x="1284" d="M133 1219v100q74 0 105.5 28.5t54.5 86.5h94v-910h-143v695h-111zM266 0l565 1434h134l-566 -1434h-133zM797 606v88q0 227 213 228h1q212 0 212 -228q0 -100 -48.5 -191t-104.5 -144.5t-98 -114.5q-34 -50 -34 -94q0 -11 2 -21h270v-129h-413v111q0 74 28.5 136 t70.5 108l84 93q42 46 70.5 108t28.5 134q0 102 -74 103q-73 0 -73 -91v-96h-135z" />
<glyph unicode="&#xbe;" horiz-adv-x="1284" d="M74 1167v47q0 229 213 230h1q212 0 212 -230v-22q0 -145 -101 -186q100 -43 101 -191v-72q0 -229 -213 -229t-213 229v74h135v-84q0 -90 73 -90v1q74 0 74 104v69q0 63 -21.5 89t-70.5 26h-49v129h55q86 0 86 98v51q0 104 -74 105q-73 0 -73 -90v-58h-135zM348 0 l565 1434h134l-566 -1434h-133zM760 164v131l260 614h156v-614h67v-131h-67v-164h-142v164h-274zM889 295h145v336z" />
<glyph unicode="&#xbf;" horiz-adv-x="737" d="M33 344q0 125 42 228.5t91 159.5t91 137t42 167q0 45 -8 80h201q12 -37 12 -88q0 -104 -39 -191t-84 -141.5t-84 -150.5t-39 -215q0 -141 112 -142h1q112 0 112 142v155h213v-141q0 -174 -84 -267t-247.5 -93t-247.5 93t-84 267zM285 1217v217h217v-217h-217z" />
<glyph unicode="&#xc0;" horiz-adv-x="833" d="M23 0l229 1434h330l229 -1434h-227l-39 260h-277l-39 -260h-206zM170 1737h231l140 -228h-162zM297 455h217l-108 725z" />
<glyph unicode="&#xc1;" horiz-adv-x="833" d="M23 0l229 1434h330l229 -1434h-227l-39 260h-277l-39 -260h-206zM297 455h217l-108 725zM297 1509l139 228h221l-208 -228h-152z" />
<glyph unicode="&#xc2;" horiz-adv-x="833" d="M23 0l229 1434h330l229 -1434h-227l-39 260h-277l-39 -260h-206zM133 1509l182 228h203l182 -228h-192l-92 113l-90 -113h-193zM297 455h217l-108 725z" />
<glyph unicode="&#xc3;" horiz-adv-x="833" d="M23 0l229 1434h330l229 -1434h-227l-39 260h-277l-39 -260h-206zM139 1577q51 139 174 139q47 0 102.5 -25.5t82.5 -25.5q59 0 88 59l108 -75q-51 -139 -174 -140q-45 0 -100 26t-84 26q-59 0 -88 -60zM297 455h217l-108 725z" />
<glyph unicode="&#xc4;" horiz-adv-x="833" d="M23 0l229 1434h330l229 -1434h-227l-39 260h-277l-39 -260h-206zM162 1509v197h196v-197h-196zM297 455h217l-108 725zM473 1509v197h197v-197h-197z" />
<glyph unicode="&#xc5;" horiz-adv-x="833" d="M23 0l229 1434h330l229 -1434h-227l-39 260h-277l-39 -260h-206zM252 1667q0 70 47 117t116.5 47t117 -47t47.5 -117t-47.5 -117t-117 -47t-116.5 47t-47 117zM297 455h217l-108 725zM354 1667q0 -27 17.5 -44t44 -17t44 17t17.5 44t-17.5 44.5t-44 17.5t-44 -17.5 t-17.5 -44.5z" />
<glyph unicode="&#xc6;" horiz-adv-x="1187" d="M8 0l383 1434h739v-205h-389v-400h310v-204h-310v-420h389v-205h-614v260h-227l-66 -260h-215zM340 455h176v690z" />
<glyph unicode="&#xc7;" horiz-adv-x="790" d="M63 344v746q0 174 86.5 267t250 93t249.5 -93t86 -267v-140h-213v154q0 141 -116.5 141t-116.5 -141v-774q0 -139 117 -140q116 0 116 140v205h213v-191q0 -160 -74.5 -253t-216.5 -105v-66q78 0 115 -21.5t37 -74.5q0 -76 -51 -100.5t-156 -24.5q-197 0 -196 119v20h151 v-16q0 -41 45 -41q51 0 51 49q0 53 -73 53h-21v105q-283 29 -283 356z" />
<glyph unicode="&#xc8;" horiz-adv-x="753" d="M82 0v1434h614v-205h-389v-400h309v-204h-309v-420h389v-205h-614zM139 1737h232l139 -228h-162z" />
<glyph unicode="&#xc9;" horiz-adv-x="753" d="M82 0v1434h614v-205h-389v-400h309v-204h-309v-420h389v-205h-614zM268 1509l140 228h221l-209 -228h-152z" />
<glyph unicode="&#xca;" horiz-adv-x="753" d="M82 0v1434h614v-205h-389v-400h309v-204h-309v-420h389v-205h-614zM102 1509l183 228h202l183 -228h-193l-92 113l-90 -113h-193z" />
<glyph unicode="&#xcb;" horiz-adv-x="753" d="M82 0v1434h614v-205h-389v-400h309v-204h-309v-420h389v-205h-614zM133 1509v197h197v-197h-197zM444 1509v197h197v-197h-197z" />
<glyph unicode="&#xcc;" horiz-adv-x="389" d="M-51 1737h231l139 -228h-161zM82 0v1434h225v-1434h-225z" />
<glyph unicode="&#xcd;" horiz-adv-x="389" d="M76 1509l139 228h221l-209 -228h-151zM82 0v1434h225v-1434h-225z" />
<glyph unicode="&#xce;" horiz-adv-x="389" d="M-88 1509l182 228h203l182 -228h-192l-92 113l-91 -113h-192zM82 0v1434h225v-1434h-225z" />
<glyph unicode="&#xcf;" horiz-adv-x="389" d="M-59 1509v197h196v-197h-196zM82 0v1434h225v-1434h-225zM252 1509v197h197v-197h-197z" />
<glyph unicode="&#xd0;" horiz-adv-x="835" d="M8 625v184h74v625h356q336 0 336 -355v-725q0 -354 -336 -354h-356v625h-74zM307 205h127q115 0 115 139v746q0 139 -115 139h-127v-420h139v-184h-139v-420z" />
<glyph unicode="&#xd1;" horiz-adv-x="874" d="M80 0v1434h282l232 -859v859h201v-1434h-232l-280 1038v-1038h-203zM160 1577q51 139 174 139q47 0 102 -25.5t82 -25.5q59 0 88 59l109 -75q-51 -139 -174 -140q-45 0 -100.5 26t-84.5 26q-59 0 -88 -60z" />
<glyph unicode="&#xd2;" d="M63 344v746q0 172 88.5 266t254 94t254 -94t88.5 -266v-746q0 -172 -88.5 -266t-254 -94t-254 94t-88.5 266zM158 1737h231l139 -228h-161zM289 330q0 -141 117 -142q116 0 116 142v774q0 141 -116.5 141t-116.5 -141v-774z" />
<glyph unicode="&#xd3;" d="M63 344v746q0 172 88.5 266t254 94t254 -94t88.5 -266v-746q0 -172 -88.5 -266t-254 -94t-254 94t-88.5 266zM287 1509l139 228h221l-209 -228h-151zM289 330q0 -141 117 -142q116 0 116 142v774q0 141 -116.5 141t-116.5 -141v-774z" />
<glyph unicode="&#xd4;" d="M63 344v746q0 172 88.5 266t254 94t254 -94t88.5 -266v-746q0 -172 -88.5 -266t-254 -94t-254 94t-88.5 266zM121 1509l182 228h203l182 -228h-192l-93 113l-90 -113h-192zM289 330q0 -141 117 -142q116 0 116 142v774q0 141 -116.5 141t-116.5 -141v-774z" />
<glyph unicode="&#xd5;" d="M63 344v746q0 172 88.5 266t254 94t254 -94t88.5 -266v-746q0 -172 -88.5 -266t-254 -94t-254 94t-88.5 266zM129 1577q51 139 174 139q45 0 100 -25.5t84 -25.5q59 0 88 59l109 -75q-51 -139 -174 -140q-47 0 -102.5 26t-81.5 26q-59 0 -88 -60zM289 330 q0 -141 117 -142q116 0 116 142v774q0 141 -116.5 141t-116.5 -141v-774z" />
<glyph unicode="&#xd6;" d="M63 344v746q0 172 88.5 266t254 94t254 -94t88.5 -266v-746q0 -172 -88.5 -266t-254 -94t-254 94t-88.5 266zM152 1509v197h196v-197h-196zM289 330q0 -141 117 -142q116 0 116 142v774q0 141 -116.5 141t-116.5 -141v-774zM463 1509v197h196v-197h-196z" />
<glyph unicode="&#xd7;" d="M78 500l217 217l-215 215l108 108l218 -215l217 217l108 -108l-217 -217l217 -217l-108 -109l-217 217l-220 -217z" />
<glyph unicode="&#xd8;" d="M63 344v746q0 172 88.5 266t254.5 94q123 0 204 -53l41 112l76 -26l-53 -146q74 -88 74 -247v-746q0 -172 -88.5 -266t-253.5 -94q-127 0 -205 51l-41 -111l-76 27l51 143q-72 94 -72 250zM289 514l229 633q-14 98 -112 98q-117 0 -117 -141v-590zM291 287 q17 -99 115 -99q117 0 116 142v590z" />
<glyph unicode="&#xd9;" horiz-adv-x="815" d="M72 342v1092h225v-1106q0 -139 117 -140q116 0 116 140v1106h213v-1092q0 -174 -86 -267t-249.5 -93t-249.5 93t-86 267zM162 1737h231l139 -228h-161z" />
<glyph unicode="&#xda;" horiz-adv-x="815" d="M72 342v1092h225v-1106q0 -139 117 -140q116 0 116 140v1106h213v-1092q0 -174 -86 -267t-249.5 -93t-249.5 93t-86 267zM291 1509l139 228h221l-209 -228h-151z" />
<glyph unicode="&#xdb;" horiz-adv-x="815" d="M72 342v1092h225v-1106q0 -139 117 -140q116 0 116 140v1106h213v-1092q0 -174 -86 -267t-249.5 -93t-249.5 93t-86 267zM127 1509l182 228h203l182 -228h-192l-92 113l-91 -113h-192z" />
<glyph unicode="&#xdc;" horiz-adv-x="815" d="M72 342v1092h225v-1106q0 -139 117 -140q116 0 116 140v1106h213v-1092q0 -174 -86 -267t-249.5 -93t-249.5 93t-86 267zM158 1509v197h196v-197h-196zM469 1509v197h197v-197h-197z" />
<glyph unicode="&#xdd;" d="M8 1434h236l172 -654l172 654h215l-285 -959v-475h-225v475zM295 1509l139 228h221l-209 -228h-151z" />
<glyph unicode="&#xde;" horiz-adv-x="772" d="M82 0v1434h225v-164h107q336 0 336 -355v-186q0 -354 -336 -354h-107v-375h-225zM307 580h107q55 0 82.5 30.5t27.5 104.5v215q0 74 -27.5 104.5t-82.5 30.5h-107v-485z" />
<glyph unicode="&#xdf;" horiz-adv-x="1531" d="M47 344v88h213v-102q0 -139 117 -140h1q116 0 116 140q0 80 -45.5 150.5t-110.5 127.5l-130 120q-65 63 -110 156t-45 206q0 174 84 267t248 93t248 -93t84 -267v-46h-213v60q0 141 -112.5 141t-112.5 -141q0 -59 24.5 -112.5t63.5 -96.5t86 -85t93 -88t85 -98.5 t63.5 -124t24.5 -155.5q0 -174 -86 -267t-250 -93t-250 93t-86 267zM813 344v88h213v-102q0 -139 117 -139q0 -1 1 -1q116 0 116 140q0 80 -45.5 150.5t-110.5 128.5l-130 120q-65 62 -110 155t-45 206q0 174 84 267t248 93t248 -93t84 -267v-46h-213v60q0 141 -113 141 t-113 -141q0 -59 25 -112.5t63.5 -96.5t86 -85t93.5 -88t85 -98.5t63.5 -124t24.5 -155.5q0 -174 -86 -267t-250 -93t-250 93t-86 267z" />
<glyph unicode="&#xe0;" horiz-adv-x="833" d="M23 0l229 1434h330l229 -1434h-227l-39 260h-277l-39 -260h-206zM170 1737h231l140 -228h-162zM297 455h217l-108 725z" />
<glyph unicode="&#xe1;" horiz-adv-x="833" d="M23 0l229 1434h330l229 -1434h-227l-39 260h-277l-39 -260h-206zM297 455h217l-108 725zM297 1509l139 228h221l-208 -228h-152z" />
<glyph unicode="&#xe2;" horiz-adv-x="833" d="M23 0l229 1434h330l229 -1434h-227l-39 260h-277l-39 -260h-206zM133 1509l182 228h203l182 -228h-192l-92 113l-90 -113h-193zM297 455h217l-108 725z" />
<glyph unicode="&#xe3;" horiz-adv-x="833" d="M23 0l229 1434h330l229 -1434h-227l-39 260h-277l-39 -260h-206zM139 1577q51 139 174 139q47 0 102.5 -25.5t82.5 -25.5q59 0 88 59l108 -75q-51 -139 -174 -140q-45 0 -100 26t-84 26q-59 0 -88 -60zM297 455h217l-108 725z" />
<glyph unicode="&#xe4;" horiz-adv-x="833" d="M23 0l229 1434h330l229 -1434h-227l-39 260h-277l-39 -260h-206zM162 1509v197h196v-197h-196zM297 455h217l-108 725zM473 1509v197h197v-197h-197z" />
<glyph unicode="&#xe5;" horiz-adv-x="833" d="M23 0l229 1434h330l229 -1434h-227l-39 260h-277l-39 -260h-206zM252 1667q0 70 47 117t116.5 47t117 -47t47.5 -117t-47.5 -117t-117 -47t-116.5 47t-47 117zM297 455h217l-108 725zM354 1667q0 -27 17.5 -44t44 -17t44 17t17.5 44t-17.5 44.5t-44 17.5t-44 -17.5 t-17.5 -44.5z" />
<glyph unicode="&#xe6;" horiz-adv-x="1187" d="M8 0l383 1434h739v-205h-389v-400h310v-204h-310v-420h389v-205h-614v260h-227l-66 -260h-215zM340 455h176v690z" />
<glyph unicode="&#xe7;" horiz-adv-x="790" d="M63 344v746q0 174 86.5 267t250 93t249.5 -93t86 -267v-140h-213v154q0 141 -116.5 141t-116.5 -141v-774q0 -139 117 -140q116 0 116 140v205h213v-191q0 -160 -74.5 -253t-216.5 -105v-66q78 0 115 -21.5t37 -74.5q0 -76 -51 -100.5t-156 -24.5q-197 0 -196 119v20h151 v-16q0 -41 45 -41q51 0 51 49q0 53 -73 53h-21v105q-283 29 -283 356z" />
<glyph unicode="&#xe8;" horiz-adv-x="753" d="M82 0v1434h614v-205h-389v-400h309v-204h-309v-420h389v-205h-614zM139 1737h232l139 -228h-162z" />
<glyph unicode="&#xe9;" horiz-adv-x="753" d="M82 0v1434h614v-205h-389v-400h309v-204h-309v-420h389v-205h-614zM268 1509l140 228h221l-209 -228h-152z" />
<glyph unicode="&#xea;" horiz-adv-x="753" d="M82 0v1434h614v-205h-389v-400h309v-204h-309v-420h389v-205h-614zM102 1509l183 228h202l183 -228h-193l-92 113l-90 -113h-193z" />
<glyph unicode="&#xeb;" horiz-adv-x="753" d="M82 0v1434h614v-205h-389v-400h309v-204h-309v-420h389v-205h-614zM133 1509v197h197v-197h-197zM444 1509v197h197v-197h-197z" />
<glyph unicode="&#xec;" horiz-adv-x="389" d="M-51 1737h231l139 -228h-161zM82 0v1434h225v-1434h-225z" />
<glyph unicode="&#xed;" horiz-adv-x="389" d="M76 1509l139 228h221l-209 -228h-151zM82 0v1434h225v-1434h-225z" />
<glyph unicode="&#xee;" horiz-adv-x="389" d="M-88 1509l182 228h203l182 -228h-192l-92 113l-91 -113h-192zM82 0v1434h225v-1434h-225z" />
<glyph unicode="&#xef;" horiz-adv-x="389" d="M-59 1509v197h196v-197h-196zM82 0v1434h225v-1434h-225zM252 1509v197h197v-197h-197z" />
<glyph unicode="&#xf0;" horiz-adv-x="835" d="M8 625v184h74v625h356q336 0 336 -355v-725q0 -354 -336 -354h-356v625h-74zM307 205h127q115 0 115 139v746q0 139 -115 139h-127v-420h139v-184h-139v-420z" />
<glyph unicode="&#xf1;" horiz-adv-x="874" d="M80 0v1434h282l232 -859v859h201v-1434h-232l-280 1038v-1038h-203zM160 1577q51 139 174 139q47 0 102 -25.5t82 -25.5q59 0 88 59l109 -75q-51 -139 -174 -140q-45 0 -100.5 26t-84.5 26q-59 0 -88 -60z" />
<glyph unicode="&#xf2;" d="M63 344v746q0 172 88.5 266t254 94t254 -94t88.5 -266v-746q0 -172 -88.5 -266t-254 -94t-254 94t-88.5 266zM158 1737h231l139 -228h-161zM289 330q0 -141 117 -142q116 0 116 142v774q0 141 -116.5 141t-116.5 -141v-774z" />
<glyph unicode="&#xf3;" d="M63 344v746q0 172 88.5 266t254 94t254 -94t88.5 -266v-746q0 -172 -88.5 -266t-254 -94t-254 94t-88.5 266zM287 1509l139 228h221l-209 -228h-151zM289 330q0 -141 117 -142q116 0 116 142v774q0 141 -116.5 141t-116.5 -141v-774z" />
<glyph unicode="&#xf4;" d="M63 344v746q0 172 88.5 266t254 94t254 -94t88.5 -266v-746q0 -172 -88.5 -266t-254 -94t-254 94t-88.5 266zM121 1509l182 228h203l182 -228h-192l-93 113l-90 -113h-192zM289 330q0 -141 117 -142q116 0 116 142v774q0 141 -116.5 141t-116.5 -141v-774z" />
<glyph unicode="&#xf5;" d="M63 344v746q0 172 88.5 266t254 94t254 -94t88.5 -266v-746q0 -172 -88.5 -266t-254 -94t-254 94t-88.5 266zM129 1577q51 139 174 139q45 0 100 -25.5t84 -25.5q59 0 88 59l109 -75q-51 -139 -174 -140q-47 0 -102.5 26t-81.5 26q-59 0 -88 -60zM289 330 q0 -141 117 -142q116 0 116 142v774q0 141 -116.5 141t-116.5 -141v-774z" />
<glyph unicode="&#xf6;" d="M63 344v746q0 172 88.5 266t254 94t254 -94t88.5 -266v-746q0 -172 -88.5 -266t-254 -94t-254 94t-88.5 266zM152 1509v197h196v-197h-196zM289 330q0 -141 117 -142q116 0 116 142v774q0 141 -116.5 141t-116.5 -141v-774zM463 1509v197h196v-197h-196z" />
<glyph unicode="&#xf7;" d="M51 637v160h709v-160h-709zM297 295v217h217v-217h-217zM297 920v217h217v-217h-217z" />
<glyph unicode="&#xf8;" d="M63 344v746q0 172 88.5 266t254.5 94q123 0 204 -53l41 112l76 -26l-53 -146q74 -88 74 -247v-746q0 -172 -88.5 -266t-253.5 -94q-127 0 -205 51l-41 -111l-76 27l51 143q-72 94 -72 250zM289 514l229 633q-14 98 -112 98q-117 0 -117 -141v-590zM291 287 q17 -99 115 -99q117 0 116 142v590z" />
<glyph unicode="&#xf9;" horiz-adv-x="815" d="M72 342v1092h225v-1106q0 -139 117 -140q116 0 116 140v1106h213v-1092q0 -174 -86 -267t-249.5 -93t-249.5 93t-86 267zM162 1737h231l139 -228h-161z" />
<glyph unicode="&#xfa;" horiz-adv-x="815" d="M72 342v1092h225v-1106q0 -139 117 -140q116 0 116 140v1106h213v-1092q0 -174 -86 -267t-249.5 -93t-249.5 93t-86 267zM291 1509l139 228h221l-209 -228h-151z" />
<glyph unicode="&#xfb;" horiz-adv-x="815" d="M72 342v1092h225v-1106q0 -139 117 -140q116 0 116 140v1106h213v-1092q0 -174 -86 -267t-249.5 -93t-249.5 93t-86 267zM127 1509l182 228h203l182 -228h-192l-92 113l-91 -113h-192z" />
<glyph unicode="&#xfc;" horiz-adv-x="815" d="M72 342v1092h225v-1106q0 -139 117 -140q116 0 116 140v1106h213v-1092q0 -174 -86 -267t-249.5 -93t-249.5 93t-86 267zM158 1509v197h196v-197h-196zM469 1509v197h197v-197h-197z" />
<glyph unicode="&#xfd;" d="M8 1434h236l172 -654l172 654h215l-285 -959v-475h-225v475zM295 1509l139 228h221l-209 -228h-151z" />
<glyph unicode="&#xfe;" horiz-adv-x="772" d="M82 0v1434h225v-164h107q336 0 336 -355v-186q0 -354 -336 -354h-107v-375h-225zM307 580h107q55 0 82.5 30.5t27.5 104.5v215q0 74 -27.5 104.5t-82.5 30.5h-107v-485z" />
<glyph unicode="&#xff;" d="M8 1434h236l172 -654l172 654h215l-285 -959v-475h-225v475zM160 1509v197h196v-197h-196zM471 1509v197h197v-197h-197z" />
<glyph unicode="&#x100;" horiz-adv-x="833" d="M23 0l229 1434h330l229 -1434h-227l-39 260h-277l-39 -260h-206zM180 1518v159h471v-159h-471zM297 455h217l-108 725z" />
<glyph unicode="&#x101;" horiz-adv-x="833" d="M23 0l229 1434h330l229 -1434h-227l-39 260h-277l-39 -260h-206zM180 1518v159h471v-159h-471zM297 455h217l-108 725z" />
<glyph unicode="&#x102;" horiz-adv-x="833" d="M23 0l229 1434h330l229 -1434h-227l-39 260h-277l-39 -260h-206zM186 1737h133q4 -55 27 -76t68 -21q47 0 70.5 21t27.5 76h133q0 -111 -59.5 -173.5t-172 -62.5t-169 62.5t-58.5 173.5zM297 455h217l-108 725z" />
<glyph unicode="&#x103;" horiz-adv-x="833" d="M23 0l229 1434h330l229 -1434h-227l-39 260h-277l-39 -260h-206zM186 1737h133q4 -55 27 -76t68 -21q47 0 70.5 21t27.5 76h133q0 -111 -59.5 -173.5t-172 -62.5t-169 62.5t-58.5 173.5zM297 455h217l-108 725z" />
<glyph unicode="&#x104;" horiz-adv-x="833" d="M23 0l229 1434h330l229 -1434h-84q-61 -51 -61 -119q0 -27 20.5 -42t50.5 -15q29 0 74 12v-115q-55 -22 -132 -22h-7q-84 0 -131 32.5t-47 94.5q0 86 96 149l-45 285h-277l-39 -260h-206zM297 455h217l-108 725z" />
<glyph unicode="&#x105;" horiz-adv-x="833" d="M23 0l229 1434h330l229 -1434h-84q-61 -51 -61 -119q0 -27 20.5 -42t50.5 -15q29 0 74 12v-115q-55 -22 -132 -22h-7q-84 0 -131 32.5t-47 94.5q0 86 96 149l-45 285h-277l-39 -260h-206zM297 455h217l-108 725z" />
<glyph unicode="&#x106;" horiz-adv-x="790" d="M63 344v746q0 174 86.5 267t250 93t249.5 -93t86 -267v-140h-213v154q0 141 -116.5 141t-116.5 -141v-774q0 -139 117 -140q116 0 116 140v205h213v-191q0 -174 -86 -267t-249.5 -93t-250 93t-86.5 267zM281 1509l139 228h221l-209 -228h-151z" />
<glyph unicode="&#x107;" horiz-adv-x="790" d="M63 344v746q0 174 86.5 267t250 93t249.5 -93t86 -267v-140h-213v154q0 141 -116.5 141t-116.5 -141v-774q0 -139 117 -140q116 0 116 140v205h213v-191q0 -174 -86 -267t-249.5 -93t-250 93t-86.5 267zM281 1509l139 228h221l-209 -228h-151z" />
<glyph unicode="&#x108;" horiz-adv-x="790" d="M63 344v746q0 174 86.5 267t250 93t249.5 -93t86 -267v-140h-213v154q0 141 -116.5 141t-116.5 -141v-774q0 -139 117 -140q116 0 116 140v205h213v-191q0 -174 -86 -267t-249.5 -93t-250 93t-86.5 267zM115 1509l182 228h203l182 -228h-193l-92 113l-90 -113h-192z" />
<glyph unicode="&#x109;" horiz-adv-x="790" d="M63 344v746q0 174 86.5 267t250 93t249.5 -93t86 -267v-140h-213v154q0 141 -116.5 141t-116.5 -141v-774q0 -139 117 -140q116 0 116 140v205h213v-191q0 -174 -86 -267t-249.5 -93t-250 93t-86.5 267zM115 1509l182 228h203l182 -228h-193l-92 113l-90 -113h-192z" />
<glyph unicode="&#x10a;" horiz-adv-x="790" d="M63 344v746q0 174 86.5 267t250 93t249.5 -93t86 -267v-140h-213v154q0 141 -116.5 141t-116.5 -141v-774q0 -139 117 -140q116 0 116 140v205h213v-191q0 -174 -86 -267t-249.5 -93t-250 93t-86.5 267zM301 1509v197h197v-197h-197z" />
<glyph unicode="&#x10b;" horiz-adv-x="790" d="M63 344v746q0 174 86.5 267t250 93t249.5 -93t86 -267v-140h-213v154q0 141 -116.5 141t-116.5 -141v-774q0 -139 117 -140q116 0 116 140v205h213v-191q0 -174 -86 -267t-249.5 -93t-250 93t-86.5 267zM301 1509v197h197v-197h-197z" />
<glyph unicode="&#x10c;" horiz-adv-x="790" d="M63 344v746q0 174 86.5 267t250 93t249.5 -93t86 -267v-140h-213v154q0 141 -116.5 141t-116.5 -141v-774q0 -139 117 -140q116 0 116 140v205h213v-191q0 -174 -86 -267t-249.5 -93t-250 93t-86.5 267zM115 1737h192l90 -115l92 115h193l-182 -228h-203z" />
<glyph unicode="&#x10d;" horiz-adv-x="790" d="M63 344v746q0 174 86.5 267t250 93t249.5 -93t86 -267v-140h-213v154q0 141 -116.5 141t-116.5 -141v-774q0 -139 117 -140q116 0 116 140v205h213v-191q0 -174 -86 -267t-249.5 -93t-250 93t-86.5 267zM115 1737h192l90 -115l92 115h193l-182 -228h-203z" />
<glyph unicode="&#x10e;" horiz-adv-x="835" d="M82 0v1434h356q336 0 336 -355v-725q0 -354 -336 -354h-356zM115 1737h192l90 -115l92 115h193l-182 -228h-203zM307 205h127q115 0 115 139v746q0 139 -115 139h-127v-1024z" />
<glyph unicode="&#x10f;" horiz-adv-x="835" d="M82 0v1434h356q336 0 336 -355v-725q0 -354 -336 -354h-356zM115 1737h192l90 -115l92 115h193l-182 -228h-203zM307 205h127q115 0 115 139v746q0 139 -115 139h-127v-1024z" />
<glyph unicode="&#x110;" horiz-adv-x="835" d="M8 625v184h74v625h356q336 0 336 -355v-725q0 -354 -336 -354h-356v625h-74zM307 205h127q115 0 115 139v746q0 139 -115 139h-127v-420h139v-184h-139v-420z" />
<glyph unicode="&#x111;" horiz-adv-x="835" d="M8 625v184h74v625h356q336 0 336 -355v-725q0 -354 -336 -354h-356v625h-74zM307 205h127q115 0 115 139v746q0 139 -115 139h-127v-420h139v-184h-139v-420z" />
<glyph unicode="&#x112;" horiz-adv-x="753" d="M82 0v1434h614v-205h-389v-400h309v-204h-309v-420h389v-205h-614zM150 1518v159h471v-159h-471z" />
<glyph unicode="&#x113;" horiz-adv-x="753" d="M82 0v1434h614v-205h-389v-400h309v-204h-309v-420h389v-205h-614zM150 1518v159h471v-159h-471z" />
<glyph unicode="&#x114;" horiz-adv-x="753" d="M82 0v1434h614v-205h-389v-400h309v-204h-309v-420h389v-205h-614zM156 1737h133q4 -55 26.5 -76t67.5 -21q47 0 70.5 21t27.5 76h133q0 -111 -59 -173.5t-172 -62.5t-169 62.5t-58 173.5z" />
<glyph unicode="&#x115;" horiz-adv-x="753" d="M82 0v1434h614v-205h-389v-400h309v-204h-309v-420h389v-205h-614zM156 1737h133q4 -55 26.5 -76t67.5 -21q47 0 70.5 21t27.5 76h133q0 -111 -59 -173.5t-172 -62.5t-169 62.5t-58 173.5z" />
<glyph unicode="&#x116;" horiz-adv-x="753" d="M82 0v1434h614v-205h-389v-400h309v-204h-309v-420h389v-205h-614zM287 1509v197h196v-197h-196z" />
<glyph unicode="&#x117;" horiz-adv-x="753" d="M82 0v1434h614v-205h-389v-400h309v-204h-309v-420h389v-205h-614zM287 1509v197h196v-197h-196z" />
<glyph unicode="&#x118;" horiz-adv-x="753" d="M82 0v1434h614v-205h-389v-400h309v-204h-309v-420h389v-205h-84q-61 -51 -61 -119q0 -27 20.5 -42t51.5 -15q29 0 73 12v-115q-55 -22 -132 -22h-7q-84 0 -131 32.5t-47 94.5q0 104 137 174h-434z" />
<glyph unicode="&#x119;" horiz-adv-x="753" d="M82 0v1434h614v-205h-389v-400h309v-204h-309v-420h389v-205h-84q-61 -51 -61 -119q0 -27 20.5 -42t51.5 -15q29 0 73 12v-115q-55 -22 -132 -22h-7q-84 0 -131 32.5t-47 94.5q0 104 137 174h-434z" />
<glyph unicode="&#x11a;" horiz-adv-x="753" d="M82 0v1434h614v-205h-389v-400h309v-204h-309v-420h389v-205h-614zM100 1737h193l90 -115l92 115h193l-183 -228h-202z" />
<glyph unicode="&#x11b;" horiz-adv-x="753" d="M82 0v1434h614v-205h-389v-400h309v-204h-309v-420h389v-205h-614zM100 1737h193l90 -115l92 115h193l-183 -228h-202z" />
<glyph unicode="&#x11c;" horiz-adv-x="798" d="M63 344v746q0 174 86.5 267t250 93t249.5 -93t86 -267v-140h-213v154q0 141 -116.5 141t-116.5 -141v-774q0 -139 117 -140q116 0 116 140v264h-102v205h315v-455q0 -174 -86 -267t-249.5 -93t-250 93t-86.5 267zM115 1509l182 228h203l182 -228h-193l-92 113l-90 -113 h-192z" />
<glyph unicode="&#x11d;" horiz-adv-x="798" d="M63 344v746q0 174 86.5 267t250 93t249.5 -93t86 -267v-140h-213v154q0 141 -116.5 141t-116.5 -141v-774q0 -139 117 -140q116 0 116 140v264h-102v205h315v-455q0 -174 -86 -267t-249.5 -93t-250 93t-86.5 267zM115 1509l182 228h203l182 -228h-193l-92 113l-90 -113 h-192z" />
<glyph unicode="&#x11e;" horiz-adv-x="798" d="M63 344v746q0 174 86.5 267t250 93t249.5 -93t86 -267v-140h-213v154q0 141 -116.5 141t-116.5 -141v-774q0 -139 117 -140q116 0 116 140v264h-102v205h315v-455q0 -174 -86 -267t-249.5 -93t-250 93t-86.5 267zM168 1737h133q4 -55 26.5 -76t67.5 -21q47 0 71 21t28 76 h133q0 -111 -59.5 -173.5t-172 -62.5t-169 62.5t-58.5 173.5z" />
<glyph unicode="&#x11f;" horiz-adv-x="798" d="M63 344v746q0 174 86.5 267t250 93t249.5 -93t86 -267v-140h-213v154q0 141 -116.5 141t-116.5 -141v-774q0 -139 117 -140q116 0 116 140v264h-102v205h315v-455q0 -174 -86 -267t-249.5 -93t-250 93t-86.5 267zM168 1737h133q4 -55 26.5 -76t67.5 -21q47 0 71 21t28 76 h133q0 -111 -59.5 -173.5t-172 -62.5t-169 62.5t-58.5 173.5z" />
<glyph unicode="&#x120;" horiz-adv-x="798" d="M63 344v746q0 174 86.5 267t250 93t249.5 -93t86 -267v-140h-213v154q0 141 -116.5 141t-116.5 -141v-774q0 -139 117 -140q116 0 116 140v264h-102v205h315v-455q0 -174 -86 -267t-249.5 -93t-250 93t-86.5 267zM299 1509v197h197v-197h-197z" />
<glyph unicode="&#x121;" horiz-adv-x="798" d="M63 344v746q0 174 86.5 267t250 93t249.5 -93t86 -267v-140h-213v154q0 141 -116.5 141t-116.5 -141v-774q0 -139 117 -140q116 0 116 140v264h-102v205h315v-455q0 -174 -86 -267t-249.5 -93t-250 93t-86.5 267zM299 1509v197h197v-197h-197z" />
<glyph unicode="&#x122;" horiz-adv-x="798" d="M63 344v746q0 174 86.5 267t250 93t249.5 -93t86 -267v-140h-213v154q0 141 -116.5 141t-116.5 -141v-774q0 -139 117 -140q116 0 116 140v264h-102v205h315v-455q0 -174 -86 -267t-249.5 -93t-250 93t-86.5 267zM305 -68h189v-168l-88 -131h-80l53 111h-74v188z" />
<glyph unicode="&#x123;" horiz-adv-x="798" d="M63 344v746q0 174 86.5 267t250 93t249.5 -93t86 -267v-140h-213v154q0 141 -116.5 141t-116.5 -141v-774q0 -139 117 -140q116 0 116 140v264h-102v205h315v-455q0 -174 -86 -267t-249.5 -93t-250 93t-86.5 267zM305 -68h189v-168l-88 -131h-80l53 111h-74v188z" />
<glyph unicode="&#x124;" horiz-adv-x="874" d="M82 0v1434h225v-615h256v615h230v-1434h-230v614h-256v-614h-225zM154 1509l182 228h203l182 -228h-193l-92 113l-90 -113h-192z" />
<glyph unicode="&#x125;" horiz-adv-x="874" d="M82 0v1434h225v-615h256v615h230v-1434h-230v614h-256v-614h-225zM154 1509l182 228h203l182 -228h-193l-92 113l-90 -113h-192z" />
<glyph unicode="&#x126;" horiz-adv-x="894" d="M20 1028v168h72v238h225v-238h256v238h230v-238h71v-168h-71v-1028h-230v614h-256v-614h-225v1028h-72zM317 819h256v209h-256v-209z" />
<glyph unicode="&#x127;" horiz-adv-x="894" d="M20 1028v168h72v238h225v-238h256v238h230v-238h71v-168h-71v-1028h-230v614h-256v-614h-225v1028h-72zM317 819h256v209h-256v-209z" />
<glyph unicode="&#x128;" horiz-adv-x="389" d="M-82 1577q51 139 174 139q47 0 102 -25.5t82 -25.5q59 0 89 59l108 -75q-51 -139 -174 -140q-45 0 -100.5 26t-83.5 26q-59 0 -88 -60zM82 0v1434h225v-1434h-225z" />
<glyph unicode="&#x129;" horiz-adv-x="389" d="M-82 1577q51 139 174 139q47 0 102 -25.5t82 -25.5q59 0 89 59l108 -75q-51 -139 -174 -140q-45 0 -100.5 26t-83.5 26q-59 0 -88 -60zM82 0v1434h225v-1434h-225z" />
<glyph unicode="&#x12a;" horiz-adv-x="389" d="M-41 1518v159h471v-159h-471zM82 0v1434h225v-1434h-225z" />
<glyph unicode="&#x12b;" horiz-adv-x="389" d="M-41 1518v159h471v-159h-471zM82 0v1434h225v-1434h-225z" />
<glyph unicode="&#x12c;" horiz-adv-x="389" d="M-35 1737h133q4 -55 26.5 -76t68.5 -21q47 0 70.5 21t27.5 76h133q0 -111 -59.5 -173.5t-172 -62.5t-169 62.5t-58.5 173.5zM82 0v1434h225v-1434h-225z" />
<glyph unicode="&#x12d;" horiz-adv-x="389" d="M-35 1737h133q4 -55 26.5 -76t68.5 -21q47 0 70.5 21t27.5 76h133q0 -111 -59.5 -173.5t-172 -62.5t-169 62.5t-58.5 173.5zM82 0v1434h225v-1434h-225z" />
<glyph unicode="&#x12e;" horiz-adv-x="389" d="M33 -174q0 104 137 174h-88v1434h225v-1434h-41q-61 -51 -61 -119q0 -27 20.5 -42t50.5 -15q29 0 74 12v-115q-55 -22 -132 -22h-7q-84 0 -131 32.5t-47 94.5z" />
<glyph unicode="&#x12f;" horiz-adv-x="389" d="M33 -174q0 104 137 174h-88v1434h225v-1434h-41q-61 -51 -61 -119q0 -27 20.5 -42t50.5 -15q29 0 74 12v-115q-55 -22 -132 -22h-7q-84 0 -131 32.5t-47 94.5z" />
<glyph unicode="&#x130;" horiz-adv-x="389" d="M82 0v1434h225v-1434h-225zM96 1509v197h197v-197h-197z" />
<glyph unicode="&#x131;" horiz-adv-x="389" d="M82 0v1434h225v-1434h-225z" />
<glyph unicode="&#x132;" horiz-adv-x="913" d="M82 0v1434h225v-1434h-225zM410 205q25 -2 77 -2q129 0 129 137v1094h226v-1078q0 -360 -324 -360q-71 0 -108 4v205z" />
<glyph unicode="&#x133;" horiz-adv-x="913" d="M82 0v1434h225v-1434h-225zM410 205q25 -2 77 -2q129 0 129 137v1094h226v-1078q0 -360 -324 -360q-71 0 -108 4v205z" />
<glyph unicode="&#x134;" horiz-adv-x="524" d="M18 1509l183 228h202l183 -228h-193l-92 113l-90 -113h-193zM20 0v205q25 -2 78 -2q129 0 129 137v1094h226v-1078q0 -360 -324 -360q-72 0 -109 4z" />
<glyph unicode="&#x135;" horiz-adv-x="524" d="M18 1509l183 228h202l183 -228h-193l-92 113l-90 -113h-193zM20 0v205q25 -2 78 -2q129 0 129 137v1094h226v-1078q0 -360 -324 -360q-72 0 -109 4z" />
<glyph unicode="&#x136;" horiz-adv-x="847" d="M82 0v1434h225v-625l295 625h225l-313 -639l313 -795h-231l-219 571l-70 -131v-440h-225zM346 -68h189v-168l-89 -131h-79l53 111h-74v188z" />
<glyph unicode="&#x137;" horiz-adv-x="847" d="M82 0v1434h225v-625l295 625h225l-313 -639l313 -795h-231l-219 571l-70 -131v-440h-225zM346 -68h189v-168l-89 -131h-79l53 111h-74v188z" />
<glyph unicode="&#x138;" horiz-adv-x="847" d="M82 0v1434h225v-625l295 625h225l-313 -639l313 -795h-231l-219 571l-70 -131v-440h-225z" />
<glyph unicode="&#x139;" horiz-adv-x="694" d="M82 0v1434h225v-1229h371v-205h-596zM147 1509l140 228h221l-209 -228h-152z" />
<glyph unicode="&#x13a;" horiz-adv-x="694" d="M82 0v1434h225v-1229h371v-205h-596zM147 1509l140 228h221l-209 -228h-152z" />
<glyph unicode="&#x13b;" horiz-adv-x="694" d="M82 0v1434h225v-1229h371v-205h-596zM287 -68h188v-168l-88 -131h-80l53 111h-73v188z" />
<glyph unicode="&#x13c;" horiz-adv-x="694" d="M82 0v1434h225v-1229h371v-205h-596zM287 -68h188v-168l-88 -131h-80l53 111h-73v188z" />
<glyph unicode="&#x13d;" horiz-adv-x="694" d="M82 0v1434h225v-1229h371v-205h-596zM432 1217v217h217v-195l-98 -227h-92l59 205h-86z" />
<glyph unicode="&#x13e;" horiz-adv-x="694" d="M82 0v1434h225v-1229h371v-205h-596zM432 1217v217h217v-195l-98 -227h-92l59 205h-86z" />
<glyph unicode="&#x13f;" horiz-adv-x="694" d="M82 0v1434h225v-1229h371v-205h-596zM430 608v217h217v-217h-217z" />
<glyph unicode="&#x140;" horiz-adv-x="694" d="M82 0v1434h225v-1229h371v-205h-596zM430 608v217h217v-217h-217z" />
<glyph unicode="&#x141;" horiz-adv-x="712" d="M0 195v204l100 107v928h226v-686l247 266v-205l-247 -266v-338h370v-205h-596v301z" />
<glyph unicode="&#x142;" horiz-adv-x="712" d="M0 195v204l100 107v928h226v-686l247 266v-205l-247 -266v-338h370v-205h-596v301z" />
<glyph unicode="&#x143;" horiz-adv-x="874" d="M80 0v1434h282l232 -859v859h201v-1434h-232l-280 1038v-1038h-203zM317 1509l140 228h221l-209 -228h-152z" />
<glyph unicode="&#x144;" horiz-adv-x="874" d="M80 0v1434h282l232 -859v859h201v-1434h-232l-280 1038v-1038h-203zM317 1509l140 228h221l-209 -228h-152z" />
<glyph unicode="&#x145;" horiz-adv-x="874" d="M80 0v1434h282l232 -859v859h201v-1434h-232l-280 1038v-1038h-203zM342 -68h188v-168l-88 -131h-80l54 111h-74v188z" />
<glyph unicode="&#x146;" horiz-adv-x="874" d="M80 0v1434h282l232 -859v859h201v-1434h-232l-280 1038v-1038h-203zM342 -68h188v-168l-88 -131h-80l54 111h-74v188z" />
<glyph unicode="&#x147;" horiz-adv-x="874" d="M80 0v1434h282l232 -859v859h201v-1434h-232l-280 1038v-1038h-203zM154 1737h192l90 -115l92 115h193l-182 -228h-203z" />
<glyph unicode="&#x148;" horiz-adv-x="874" d="M80 0v1434h282l232 -859v859h201v-1434h-232l-280 1038v-1038h-203zM154 1737h192l90 -115l92 115h193l-182 -228h-203z" />
<glyph unicode="&#x149;" horiz-adv-x="1112" d="M10 1217v217h217v-195l-98 -227h-92l59 205h-86zM317 0v1434h283l231 -859v859h201v-1434h-231l-281 1038v-1038h-203z" />
<glyph unicode="&#x14c;" d="M63 344v746q0 172 88.5 266t254 94t254 -94t88.5 -266v-746q0 -172 -88.5 -266t-254 -94t-254 94t-88.5 266zM170 1518v159h471v-159h-471zM289 330q0 -141 117 -142q116 0 116 142v774q0 141 -116.5 141t-116.5 -141v-774z" />
<glyph unicode="&#x14d;" d="M63 344v746q0 172 88.5 266t254 94t254 -94t88.5 -266v-746q0 -172 -88.5 -266t-254 -94t-254 94t-88.5 266zM170 1518v159h471v-159h-471zM289 330q0 -141 117 -142q116 0 116 142v774q0 141 -116.5 141t-116.5 -141v-774z" />
<glyph unicode="&#x14e;" d="M63 344v746q0 172 88.5 266t254 94t254 -94t88.5 -266v-746q0 -172 -88.5 -266t-254 -94t-254 94t-88.5 266zM176 1737h133q4 -55 26.5 -76t67.5 -21q47 0 71 21t28 76h133q0 -111 -59.5 -173.5t-172 -62.5t-169 62.5t-58.5 173.5zM289 330q0 -141 117 -142 q116 0 116 142v774q0 141 -116.5 141t-116.5 -141v-774z" />
<glyph unicode="&#x14f;" d="M63 344v746q0 172 88.5 266t254 94t254 -94t88.5 -266v-746q0 -172 -88.5 -266t-254 -94t-254 94t-88.5 266zM176 1737h133q4 -55 26.5 -76t67.5 -21q47 0 71 21t28 76h133q0 -111 -59.5 -173.5t-172 -62.5t-169 62.5t-58.5 173.5zM289 330q0 -141 117 -142 q116 0 116 142v774q0 141 -116.5 141t-116.5 -141v-774z" />
<glyph unicode="&#x150;" d="M63 344v746q0 172 88.5 266t254 94t254 -94t88.5 -266v-746q0 -172 -88.5 -266t-254 -94t-254 94t-88.5 266zM168 1509l102 228h205l-170 -228h-137zM289 330q0 -141 117 -142q116 0 116 142v774q0 141 -116.5 141t-116.5 -141v-774zM436 1509l101 228h206l-172 -228 h-135z" />
<glyph unicode="&#x151;" d="M63 344v746q0 172 88.5 266t254 94t254 -94t88.5 -266v-746q0 -172 -88.5 -266t-254 -94t-254 94t-88.5 266zM168 1509l102 228h205l-170 -228h-137zM289 330q0 -141 117 -142q116 0 116 142v774q0 141 -116.5 141t-116.5 -141v-774zM436 1509l101 228h206l-172 -228 h-135z" />
<glyph unicode="&#x152;" horiz-adv-x="1200" d="M61 354v725q0 354 336 355h746v-205h-389v-400h309v-204h-309v-420h389v-205h-746q-336 0 -336 354zM287 344q0 -139 114 -139h127v1024h-127q-115 0 -114 -139v-746z" />
<glyph unicode="&#x153;" horiz-adv-x="1200" d="M61 354v725q0 354 336 355h746v-205h-389v-400h309v-204h-309v-420h389v-205h-746q-336 0 -336 354zM287 344q0 -139 114 -139h127v1024h-127q-115 0 -114 -139v-746z" />
<glyph unicode="&#x154;" horiz-adv-x="823" d="M82 0v1434h340q174 0 254 -81t80 -249v-113q0 -221 -148 -291q150 -63 150 -305v-221v-9q0 -110 24 -165h-229q-20 61 -21 176v225q0 98 -34.5 140.5t-112.5 42.5h-78v-584h-225zM281 1509l139 228h221l-209 -228h-151zM307 788h88q68 0 101.5 35t33.5 117v141 q1 148 -114 148h-109v-441z" />
<glyph unicode="&#x155;" horiz-adv-x="823" d="M82 0v1434h340q174 0 254 -81t80 -249v-113q0 -221 -148 -291q150 -63 150 -305v-221v-9q0 -110 24 -165h-229q-20 61 -21 176v225q0 98 -34.5 140.5t-112.5 42.5h-78v-584h-225zM281 1509l139 228h221l-209 -228h-151zM307 788h88q68 0 101.5 35t33.5 117v141 q1 148 -114 148h-109v-441z" />
<glyph unicode="&#x156;" horiz-adv-x="823" d="M82 0v1434h340q174 0 254 -81t80 -249v-113q0 -221 -148 -291q150 -63 150 -305v-221v-9q0 -110 24 -165h-229q-20 61 -21 176v225q0 98 -34.5 140.5t-112.5 42.5h-78v-584h-225zM307 788h88q68 0 101.5 35t33.5 117v141q1 148 -114 148h-109v-441zM322 -68h188v-168 l-88 -131h-80l53 111h-73v188z" />
<glyph unicode="&#x157;" horiz-adv-x="823" d="M82 0v1434h340q174 0 254 -81t80 -249v-113q0 -221 -148 -291q150 -63 150 -305v-221v-9q0 -110 24 -165h-229q-20 61 -21 176v225q0 98 -34.5 140.5t-112.5 42.5h-78v-584h-225zM307 788h88q68 0 101.5 35t33.5 117v141q1 148 -114 148h-109v-441zM322 -68h188v-168 l-88 -131h-80l53 111h-73v188z" />
<glyph unicode="&#x158;" horiz-adv-x="823" d="M82 0v1434h340q174 0 254 -81t80 -249v-113q0 -221 -148 -291q150 -63 150 -305v-221v-9q0 -110 24 -165h-229q-20 61 -21 176v225q0 98 -34.5 140.5t-112.5 42.5h-78v-584h-225zM115 1737h192l90 -115l92 115h193l-182 -228h-203zM307 788h88q68 0 101.5 35t33.5 117 v141q1 148 -114 148h-109v-441z" />
<glyph unicode="&#x159;" horiz-adv-x="823" d="M82 0v1434h340q174 0 254 -81t80 -249v-113q0 -221 -148 -291q150 -63 150 -305v-221v-9q0 -110 24 -165h-229q-20 61 -21 176v225q0 98 -34.5 140.5t-112.5 42.5h-78v-584h-225zM115 1737h192l90 -115l92 115h193l-182 -228h-203zM307 788h88q68 0 101.5 35t33.5 117 v141q1 148 -114 148h-109v-441z" />
<glyph unicode="&#x15a;" horiz-adv-x="765" d="M47 344v88h213v-102q0 -139 117 -140h1q116 0 116 140q0 80 -45.5 150.5t-110.5 127.5l-130 120q-65 63 -110 156t-45 206q0 174 84 267t248 93t248 -93t84 -267v-46h-213v60q0 141 -112.5 141t-112.5 -141q0 -59 24.5 -112.5t63.5 -96.5t86 -85t93 -88t85 -98.5 t63.5 -124t24.5 -155.5q0 -174 -86 -267t-250 -93t-250 93t-86 267zM264 1509l139 228h222l-209 -228h-152z" />
<glyph unicode="&#x15b;" horiz-adv-x="765" d="M47 344v88h213v-102q0 -139 117 -140h1q116 0 116 140q0 80 -45.5 150.5t-110.5 127.5l-130 120q-65 63 -110 156t-45 206q0 174 84 267t248 93t248 -93t84 -267v-46h-213v60q0 141 -112.5 141t-112.5 -141q0 -59 24.5 -112.5t63.5 -96.5t86 -85t93 -88t85 -98.5 t63.5 -124t24.5 -155.5q0 -174 -86 -267t-250 -93t-250 93t-86 267zM264 1509l139 228h222l-209 -228h-152z" />
<glyph unicode="&#x15c;" horiz-adv-x="765" d="M47 344v88h213v-102q0 -139 117 -140h1q116 0 116 140q0 80 -45.5 150.5t-110.5 127.5l-130 120q-65 63 -110 156t-45 206q0 174 84 267t248 93t248 -93t84 -267v-46h-213v60q0 141 -112.5 141t-112.5 -141q0 -59 24.5 -112.5t63.5 -96.5t86 -85t93 -88t85 -98.5 t63.5 -124t24.5 -155.5q0 -174 -86 -267t-250 -93t-250 93t-86 267zM98 1509l183 228h202l183 -228h-193l-92 113l-90 -113h-193z" />
<glyph unicode="&#x15d;" horiz-adv-x="765" d="M47 344v88h213v-102q0 -139 117 -140h1q116 0 116 140q0 80 -45.5 150.5t-110.5 127.5l-130 120q-65 63 -110 156t-45 206q0 174 84 267t248 93t248 -93t84 -267v-46h-213v60q0 141 -112.5 141t-112.5 -141q0 -59 24.5 -112.5t63.5 -96.5t86 -85t93 -88t85 -98.5 t63.5 -124t24.5 -155.5q0 -174 -86 -267t-250 -93t-250 93t-86 267zM98 1509l183 228h202l183 -228h-193l-92 113l-90 -113h-193z" />
<glyph unicode="&#x15e;" horiz-adv-x="765" d="M47 344v88h213v-102q0 -139 117 -140h1q116 0 116 140q0 80 -45.5 150.5t-110.5 127.5l-130 120q-65 63 -110 156t-45 206q0 174 84 267t248 93t248 -93t84 -267v-46h-213v60q0 141 -112.5 141t-112.5 -141q0 -59 24.5 -112.5t63.5 -96.5t86 -85t93 -88t85 -98.5 t63.5 -124t24.5 -155.5q0 -164 -76 -256t-223 -102v-66q78 0 114.5 -21.5t36.5 -74.5q0 -76 -51 -100.5t-155 -24.5q-197 0 -197 119v20h151v-16q0 -41 46 -41q51 0 51 49q0 53 -74 53h-20v105q-274 35 -275 356z" />
<glyph unicode="&#x15f;" horiz-adv-x="765" d="M47 344v88h213v-102q0 -139 117 -140h1q116 0 116 140q0 80 -45.5 150.5t-110.5 127.5l-130 120q-65 63 -110 156t-45 206q0 174 84 267t248 93t248 -93t84 -267v-46h-213v60q0 141 -112.5 141t-112.5 -141q0 -59 24.5 -112.5t63.5 -96.5t86 -85t93 -88t85 -98.5 t63.5 -124t24.5 -155.5q0 -164 -76 -256t-223 -102v-66q78 0 114.5 -21.5t36.5 -74.5q0 -76 -51 -100.5t-155 -24.5q-197 0 -197 119v20h151v-16q0 -41 46 -41q51 0 51 49q0 53 -74 53h-20v105q-274 35 -275 356z" />
<glyph unicode="&#x160;" horiz-adv-x="765" d="M47 344v88h213v-102q0 -139 117 -140h1q116 0 116 140q0 80 -45.5 150.5t-110.5 127.5l-130 120q-65 63 -110 156t-45 206q0 174 84 267t248 93t248 -93t84 -267v-46h-213v60q0 141 -112.5 141t-112.5 -141q0 -59 24.5 -112.5t63.5 -96.5t86 -85t93 -88t85 -98.5 t63.5 -124t24.5 -155.5q0 -174 -86 -267t-250 -93t-250 93t-86 267zM100 1737h193l90 -115l92 115h193l-183 -228h-202z" />
<glyph unicode="&#x161;" horiz-adv-x="765" d="M47 344v88h213v-102q0 -139 117 -140h1q116 0 116 140q0 80 -45.5 150.5t-110.5 127.5l-130 120q-65 63 -110 156t-45 206q0 174 84 267t248 93t248 -93t84 -267v-46h-213v60q0 141 -112.5 141t-112.5 -141q0 -59 24.5 -112.5t63.5 -96.5t86 -85t93 -88t85 -98.5 t63.5 -124t24.5 -155.5q0 -174 -86 -267t-250 -93t-250 93t-86 267zM98 1737h193l90 -115l92 115h193l-183 -228h-202z" />
<glyph unicode="&#x162;" horiz-adv-x="729" d="M16 1229v205h697v-205h-236v-1229h-63v-80q59 0 94 -31.5t35 -85.5q0 -86 -52.5 -127t-134.5 -41q-74 0 -125 37t-51 105v20h131v-20q0 -37 43 -37q53 0 54 53q0 57 -74 57h-23v150h-59v1229h-236z" />
<glyph unicode="&#x163;" horiz-adv-x="729" d="M16 1229v205h697v-205h-236v-1229h-63v-80q59 0 94 -31.5t35 -85.5q0 -86 -52.5 -127t-134.5 -41q-74 0 -125 37t-51 105v20h131v-20q0 -37 43 -37q53 0 54 53q0 57 -74 57h-23v150h-59v1229h-236z" />
<glyph unicode="&#x164;" horiz-adv-x="729" d="M16 1229v205h697v-205h-236v-1229h-225v1229h-236zM80 1737h192l90 -115l93 115h192l-182 -228h-203z" />
<glyph unicode="&#x165;" horiz-adv-x="729" d="M16 1229v205h697v-205h-236v-1229h-225v1229h-236zM80 1737h192l90 -115l93 115h192l-182 -228h-203z" />
<glyph unicode="&#x166;" horiz-adv-x="729" d="M16 1229v205h697v-205h-236v-232h135v-168h-135v-829h-225v829h-135v168h135v232h-236z" />
<glyph unicode="&#x167;" horiz-adv-x="729" d="M16 1229v205h697v-205h-236v-232h135v-168h-135v-829h-225v829h-135v168h135v232h-236z" />
<glyph unicode="&#x168;" horiz-adv-x="815" d="M72 342v1092h225v-1106q0 -139 117 -140q116 0 116 140v1106h213v-1092q0 -174 -86 -267t-249.5 -93t-249.5 93t-86 267zM133 1577q51 139 174 139q45 0 100.5 -25.5t84.5 -25.5q59 0 88 59l108 -75q-51 -139 -174 -140q-47 0 -102.5 26t-81.5 26q-59 0 -88 -60z" />
<glyph unicode="&#x169;" horiz-adv-x="815" d="M72 342v1092h225v-1106q0 -139 117 -140q116 0 116 140v1106h213v-1092q0 -174 -86 -267t-249.5 -93t-249.5 93t-86 267zM133 1577q51 139 174 139q45 0 100.5 -25.5t84.5 -25.5q59 0 88 59l108 -75q-51 -139 -174 -140q-47 0 -102.5 26t-81.5 26q-59 0 -88 -60z" />
<glyph unicode="&#x16a;" horiz-adv-x="815" d="M72 342v1092h225v-1106q0 -139 117 -140q116 0 116 140v1106h213v-1092q0 -174 -86 -267t-249.5 -93t-249.5 93t-86 267zM174 1518v159h471v-159h-471z" />
<glyph unicode="&#x16b;" horiz-adv-x="815" d="M72 342v1092h225v-1106q0 -139 117 -140q116 0 116 140v1106h213v-1092q0 -174 -86 -267t-249.5 -93t-249.5 93t-86 267zM174 1518v159h471v-159h-471z" />
<glyph unicode="&#x16c;" horiz-adv-x="815" d="M72 342v1092h225v-1106q0 -139 117 -140q116 0 116 140v1106h213v-1092q0 -174 -86 -267t-249.5 -93t-249.5 93t-86 267zM180 1737h133q4 -55 26.5 -76t68.5 -21q47 0 70.5 21t27.5 76h133q0 -111 -59.5 -173.5t-172 -62.5t-169 62.5t-58.5 173.5z" />
<glyph unicode="&#x16d;" horiz-adv-x="815" d="M72 342v1092h225v-1106q0 -139 117 -140q116 0 116 140v1106h213v-1092q0 -174 -86 -267t-249.5 -93t-249.5 93t-86 267zM180 1737h133q4 -55 26.5 -76t68.5 -21q47 0 70.5 21t27.5 76h133q0 -111 -59.5 -173.5t-172 -62.5t-169 62.5t-58.5 173.5z" />
<glyph unicode="&#x16e;" horiz-adv-x="815" d="M72 342v1092h225v-1106q0 -139 117 -140q116 0 116 140v1106h213v-1092q0 -174 -86 -267t-249.5 -93t-249.5 93t-86 267zM246 1667q0 70 47 117t116.5 47t116.5 -47t47 -117t-47 -117t-116.5 -47t-116.5 47t-47 117zM348 1667q0 -27 17.5 -44t44 -17t44 17t17.5 44 t-17.5 44.5t-44 17.5t-44 -17.5t-17.5 -44.5z" />
<glyph unicode="&#x16f;" horiz-adv-x="815" d="M72 342v1092h225v-1106q0 -139 117 -140q116 0 116 140v1106h213v-1092q0 -174 -86 -267t-249.5 -93t-249.5 93t-86 267zM246 1667q0 70 47 117t116.5 47t116.5 -47t47 -117t-47 -117t-116.5 -47t-116.5 47t-47 117zM348 1667q0 -27 17.5 -44t44 -17t44 17t17.5 44 t-17.5 44.5t-44 17.5t-44 -17.5t-17.5 -44.5z" />
<glyph unicode="&#x170;" horiz-adv-x="815" d="M72 342v1092h225v-1106q0 -139 117 -140q116 0 116 140v1106h213v-1092q0 -174 -86 -267t-249.5 -93t-249.5 93t-86 267zM172 1509l102 228h205l-170 -228h-137zM440 1509l101 228h207l-173 -228h-135z" />
<glyph unicode="&#x171;" horiz-adv-x="815" d="M72 342v1092h225v-1106q0 -139 117 -140q116 0 116 140v1106h213v-1092q0 -174 -86 -267t-249.5 -93t-249.5 93t-86 267zM172 1509l102 228h205l-170 -228h-137zM440 1509l101 228h207l-173 -228h-135z" />
<glyph unicode="&#x172;" horiz-adv-x="815" d="M72 342v1092h225v-1106q0 -139 116 -140h1q116 0 116 140v1106h213v-1092q0 -225 -129 -326q-69 -54 -69 -133q0 -29 20.5 -44t50.5 -15q29 0 74 12v-115q-55 -22 -132 -22h-7q-84 0 -131 32.5t-47 94.5q0 94 119 164q-35 -8 -84 -8q-164 0 -250 93t-86 267z" />
<glyph unicode="&#x173;" horiz-adv-x="815" d="M72 342v1092h225v-1106q0 -139 116 -140h1q116 0 116 140v1106h213v-1092q0 -225 -129 -326q-69 -54 -69 -133q0 -29 20.5 -44t50.5 -15q29 0 74 12v-115q-55 -22 -132 -22h-7q-84 0 -131 32.5t-47 94.5q0 94 119 164q-35 -8 -84 -8q-164 0 -250 93t-86 267z" />
<glyph unicode="&#x174;" horiz-adv-x="1153" d="M31 1434h219l121 -1131l108 1131h217l113 -1139l117 1139h196l-159 -1434h-299l-82 764l-82 -764h-310zM293 1509l182 228h203l182 -228h-192l-93 113l-90 -113h-192z" />
<glyph unicode="&#x175;" horiz-adv-x="1153" d="M31 1434h219l121 -1131l108 1131h217l113 -1139l117 1139h196l-159 -1434h-299l-82 764l-82 -764h-310zM293 1509l182 228h203l182 -228h-192l-93 113l-90 -113h-192z" />
<glyph unicode="&#x176;" d="M8 1434h236l172 -654l172 654h215l-285 -959v-475h-225v475zM131 1509l182 228h203l182 -228h-192l-92 113l-90 -113h-193z" />
<glyph unicode="&#x177;" d="M8 1434h236l172 -654l172 654h215l-285 -959v-475h-225v475zM131 1509l182 228h203l182 -228h-192l-92 113l-90 -113h-193z" />
<glyph unicode="&#x178;" d="M8 1434h236l172 -654l172 654h215l-285 -959v-475h-225v475zM160 1509v197h196v-197h-196zM471 1509v197h197v-197h-197z" />
<glyph unicode="&#x179;" horiz-adv-x="757" d="M47 0v201l428 1028h-407v205h639v-201l-428 -1028h428v-205h-660zM262 1509l139 228h222l-209 -228h-152z" />
<glyph unicode="&#x17a;" horiz-adv-x="757" d="M47 0v201l428 1028h-407v205h639v-201l-428 -1028h428v-205h-660zM262 1509l139 228h222l-209 -228h-152z" />
<glyph unicode="&#x17b;" horiz-adv-x="757" d="M47 0v201l428 1028h-407v205h639v-201l-428 -1028h428v-205h-660zM283 1509v197h196v-197h-196z" />
<glyph unicode="&#x17c;" horiz-adv-x="757" d="M47 0v201l428 1028h-407v205h639v-201l-428 -1028h428v-205h-660zM283 1509v197h196v-197h-196z" />
<glyph unicode="&#x17d;" horiz-adv-x="757" d="M47 0v201l428 1028h-407v205h639v-201l-428 -1028h428v-205h-660zM98 1737h193l90 -115l92 115h193l-183 -228h-202z" />
<glyph unicode="&#x17e;" horiz-adv-x="757" d="M47 0v201l428 1028h-407v205h639v-201l-428 -1028h428v-205h-660zM98 1737h193l90 -115l92 115h193l-183 -228h-202z" />
<glyph unicode="&#x1fc;" horiz-adv-x="1187" d="M8 0l383 1434h739v-205h-389v-400h310v-204h-310v-420h389v-205h-614v260h-227l-66 -260h-215zM340 455h176v690zM475 1509l139 228h222l-209 -228h-152z" />
<glyph unicode="&#x1fd;" horiz-adv-x="1187" d="M8 0l383 1434h739v-205h-389v-400h310v-204h-310v-420h389v-205h-614v260h-227l-66 -260h-215zM340 455h176v690zM475 1509l139 228h222l-209 -228h-152z" />
<glyph unicode="&#x1fe;" d="M63 344v746q0 172 88.5 266t254.5 94q123 0 204 -53l41 112l76 -26l-53 -146q74 -88 74 -247v-746q0 -172 -88.5 -266t-253.5 -94q-127 0 -205 51l-41 -111l-76 27l51 143q-72 94 -72 250zM287 1509l139 228h221l-209 -228h-151zM289 514l229 633q-14 98 -112 98 q-117 0 -117 -141v-590zM291 287q17 -99 115 -99q117 0 116 142v590z" />
<glyph unicode="&#x1ff;" d="M63 344v746q0 172 88.5 266t254.5 94q123 0 204 -53l41 112l76 -26l-53 -146q74 -88 74 -247v-746q0 -172 -88.5 -266t-253.5 -94q-127 0 -205 51l-41 -111l-76 27l51 143q-72 94 -72 250zM287 1509l139 228h221l-209 -228h-151zM289 514l229 633q-14 98 -112 98 q-117 0 -117 -141v-590zM291 287q17 -99 115 -99q117 0 116 142v590z" />
<glyph unicode="&#x218;" horiz-adv-x="765" d="M47 344v88h213v-102q0 -139 117 -140h1q116 0 116 140q0 80 -45.5 150.5t-110.5 127.5l-130 120q-65 63 -110 156t-45 206q0 174 84 267t248 93t248 -93t84 -267v-46h-213v60q0 141 -112.5 141t-112.5 -141q0 -59 24.5 -112.5t63.5 -96.5t86 -85t93 -88t85 -98.5 t63.5 -124t24.5 -155.5q0 -174 -86 -267t-250 -93t-250 93t-86 267zM283 -68h188v-168l-88 -131h-80l53 111h-73v188z" />
<glyph unicode="&#x219;" horiz-adv-x="765" d="M47 344v88h213v-102q0 -139 117 -140h1q116 0 116 140q0 80 -45.5 150.5t-110.5 127.5l-130 120q-65 63 -110 156t-45 206q0 174 84 267t248 93t248 -93t84 -267v-46h-213v60q0 141 -112.5 141t-112.5 -141q0 -59 24.5 -112.5t63.5 -96.5t86 -85t93 -88t85 -98.5 t63.5 -124t24.5 -155.5q0 -174 -86 -267t-250 -93t-250 93t-86 267zM283 -68h188v-168l-88 -131h-80l53 111h-73v188z" />
<glyph unicode="&#x21a;" horiz-adv-x="729" d="M16 1229v205h697v-205h-236v-1229h-225v1229h-236zM270 -68h189v-168l-88 -131h-80l53 111h-74v188z" />
<glyph unicode="&#x21b;" horiz-adv-x="729" d="M16 1229v205h697v-205h-236v-1229h-225v1229h-236zM270 -68h189v-168l-88 -131h-80l53 111h-74v188z" />
<glyph unicode="&#x237;" horiz-adv-x="524" d="M20 0v205q25 -2 78 -2q129 0 129 137v1094h226v-1078q0 -360 -324 -360q-72 0 -109 4z" />
<glyph unicode="&#x2c6;" horiz-adv-x="512" d="M-27 1509l183 228h202l183 -228h-193l-92 113l-90 -113h-193z" />
<glyph unicode="&#x2c7;" horiz-adv-x="512" d="M-27 1737h193l90 -115l92 115h193l-183 -228h-202z" />
<glyph unicode="&#x2d8;" horiz-adv-x="512" d="M27 1737h133q4 -55 26.5 -76t67.5 -21q47 0 70.5 21t27.5 76h133q0 -111 -59 -173.5t-172 -62.5t-169 62.5t-58 173.5z" />
<glyph unicode="&#x2d9;" horiz-adv-x="512" d="M158 1509v197h196v-197h-196z" />
<glyph unicode="&#x2da;" horiz-adv-x="512" d="M92 1667q0 70 47 117t117 47t117 -47t47 -117t-47 -117t-117 -47t-117 47t-47 117zM195 1667q0 -27 17 -44t44 -17t44 17t17 44t-17 44.5t-44 17.5t-44 -17.5t-17 -44.5z" />
<glyph unicode="&#x2db;" horiz-adv-x="512" d="M96 -174q0 108 156 182h88q-72 -55 -72 -127q0 -27 20.5 -42t51.5 -15q29 0 74 12v-115q-55 -22 -133 -22h-7q-84 0 -131 32.5t-47 94.5z" />
<glyph unicode="&#x2dc;" horiz-adv-x="512" d="M-20 1577q51 139 174 139q47 0 102 -25.5t82 -25.5q59 0 88 59l109 -75q-51 -139 -175 -140q-45 0 -100 26t-84 26q-59 0 -88 -60z" />
<glyph unicode="&#x2dd;" horiz-adv-x="512" d="M-51 1509l102 228h205l-170 -228h-137zM217 1509l100 228h207l-172 -228h-135z" />
<glyph unicode="&#x1e02;" horiz-adv-x="831" d="M82 0v1434h340q174 0 254 -81t80 -249v-51q0 -221 -146 -289q168 -66 168 -307v-117q0 -166 -87 -253t-255 -87h-354zM283 1509v197h196v-197h-196zM307 205h129q59 0 88 31.5t29 109.5v125q0 98 -33.5 136t-111.5 38h-101v-440zM307 850h88q68 0 101.5 35t33.5 116v80 q1 148 -114 148h-109v-379z" />
<glyph unicode="&#x1e03;" horiz-adv-x="831" d="M82 0v1434h340q174 0 254 -81t80 -249v-51q0 -221 -146 -289q168 -66 168 -307v-117q0 -166 -87 -253t-255 -87h-354zM283 1509v197h196v-197h-196zM307 205h129q59 0 88 31.5t29 109.5v125q0 98 -33.5 136t-111.5 38h-101v-440zM307 850h88q68 0 101.5 35t33.5 116v80 q1 148 -114 148h-109v-379z" />
<glyph unicode="&#x1e0a;" horiz-adv-x="835" d="M82 0v1434h356q336 0 336 -355v-725q0 -354 -336 -354h-356zM299 1509v197h197v-197h-197zM307 205h127q115 0 115 139v746q0 139 -115 139h-127v-1024z" />
<glyph unicode="&#x1e0b;" horiz-adv-x="835" d="M82 0v1434h356q336 0 336 -355v-725q0 -354 -336 -354h-356zM299 1509v197h197v-197h-197zM307 205h127q115 0 115 139v746q0 139 -115 139h-127v-1024z" />
<glyph unicode="&#x1e1e;" horiz-adv-x="704" d="M82 0v1434h596v-205h-371v-432h291v-205h-291v-592h-225zM274 1509v197h197v-197h-197z" />
<glyph unicode="&#x1e1f;" horiz-adv-x="704" d="M82 0v1434h596v-205h-371v-432h291v-205h-291v-592h-225zM274 1509v197h197v-197h-197z" />
<glyph unicode="&#x1e40;" horiz-adv-x="1107" d="M80 0v1434h313l166 -1018l154 1018h313v-1434h-213v1028l-156 -1028h-213l-168 1014v-1014h-196zM455 1509v197h196v-197h-196z" />
<glyph unicode="&#x1e41;" horiz-adv-x="1107" d="M80 0v1434h313l166 -1018l154 1018h313v-1434h-213v1028l-156 -1028h-213l-168 1014v-1014h-196zM455 1509v197h196v-197h-196z" />
<glyph unicode="&#x1e56;" horiz-adv-x="772" d="M82 0v1434h332q336 0 336 -355v-186q0 -354 -336 -354h-107v-539h-225zM291 1509v197h196v-197h-196zM307 743h107q55 0 82.5 31t27.5 105v215q0 74 -27.5 104.5t-82.5 30.5h-107v-486z" />
<glyph unicode="&#x1e57;" horiz-adv-x="772" d="M82 0v1434h332q336 0 336 -355v-186q0 -354 -336 -354h-107v-539h-225zM291 1509v197h196v-197h-196zM307 743h107q55 0 82.5 31t27.5 105v215q0 74 -27.5 104.5t-82.5 30.5h-107v-486z" />
<glyph unicode="&#x1e60;" horiz-adv-x="765" d="M47 344v88h213v-102q0 -139 117 -140h1q116 0 116 140q0 80 -45.5 150.5t-110.5 127.5l-130 120q-65 63 -110 156t-45 206q0 174 84 267t248 93t248 -93t84 -267v-46h-213v60q0 141 -112.5 141t-112.5 -141q0 -59 24.5 -112.5t63.5 -96.5t86 -85t93 -88t85 -98.5 t63.5 -124t24.5 -155.5q0 -174 -86 -267t-250 -93t-250 93t-86 267zM285 1509v197h196v-197h-196z" />
<glyph unicode="&#x1e61;" horiz-adv-x="765" d="M47 344v88h213v-102q0 -139 117 -140h1q116 0 116 140q0 80 -45.5 150.5t-110.5 127.5l-130 120q-65 63 -110 156t-45 206q0 174 84 267t248 93t248 -93t84 -267v-46h-213v60q0 141 -112.5 141t-112.5 -141q0 -59 24.5 -112.5t63.5 -96.5t86 -85t93 -88t85 -98.5 t63.5 -124t24.5 -155.5q0 -174 -86 -267t-250 -93t-250 93t-86 267zM285 1509v197h196v-197h-196z" />
<glyph unicode="&#x1e6a;" horiz-adv-x="729" d="M16 1229v205h697v-205h-236v-1229h-225v1229h-236zM266 1509v197h197v-197h-197z" />
<glyph unicode="&#x1e6b;" horiz-adv-x="729" d="M16 1229v205h697v-205h-236v-1229h-225v1229h-236zM266 1509v197h197v-197h-197z" />
<glyph unicode="&#x1e80;" horiz-adv-x="1153" d="M31 1434h219l121 -1131l108 1131h217l113 -1139l117 1139h196l-159 -1434h-299l-82 764l-82 -764h-310zM330 1737h231l139 -228h-161z" />
<glyph unicode="&#x1e81;" horiz-adv-x="1153" d="M31 1434h219l121 -1131l108 1131h217l113 -1139l117 1139h196l-159 -1434h-299l-82 764l-82 -764h-310zM330 1737h231l139 -228h-161z" />
<glyph unicode="&#x1e82;" horiz-adv-x="1153" d="M31 1434h219l121 -1131l108 1131h217l113 -1139l117 1139h196l-159 -1434h-299l-82 764l-82 -764h-310zM457 1509l139 228h221l-209 -228h-151z" />
<glyph unicode="&#x1e83;" horiz-adv-x="1153" d="M31 1434h219l121 -1131l108 1131h217l113 -1139l117 1139h196l-159 -1434h-299l-82 764l-82 -764h-310zM457 1509l139 228h221l-209 -228h-151z" />
<glyph unicode="&#x1e84;" horiz-adv-x="1153" d="M31 1434h219l121 -1131l108 1131h217l113 -1139l117 1139h196l-159 -1434h-299l-82 764l-82 -764h-310zM322 1509v197h196v-197h-196zM633 1509v197h196v-197h-196z" />
<glyph unicode="&#x1e85;" horiz-adv-x="1153" d="M31 1434h219l121 -1131l108 1131h217l113 -1139l117 1139h196l-159 -1434h-299l-82 764l-82 -764h-310zM322 1509v197h196v-197h-196zM633 1509v197h196v-197h-196z" />
<glyph unicode="&#x1ef2;" d="M8 1434h236l172 -654l172 654h215l-285 -959v-475h-225v475zM168 1737h231l140 -228h-162z" />
<glyph unicode="&#x1ef3;" d="M8 1434h236l172 -654l172 654h215l-285 -959v-475h-225v475zM168 1737h231l140 -228h-162z" />
<glyph unicode="&#x2000;" horiz-adv-x="915" />
<glyph unicode="&#x2001;" horiz-adv-x="1831" />
<glyph unicode="&#x2002;" horiz-adv-x="915" />
<glyph unicode="&#x2003;" horiz-adv-x="1831" />
<glyph unicode="&#x2004;" horiz-adv-x="610" />
<glyph unicode="&#x2005;" horiz-adv-x="457" />
<glyph unicode="&#x2006;" horiz-adv-x="305" />
<glyph unicode="&#x2007;" horiz-adv-x="305" />
<glyph unicode="&#x2008;" horiz-adv-x="228" />
<glyph unicode="&#x2009;" horiz-adv-x="366" />
<glyph unicode="&#x200a;" horiz-adv-x="101" />
<glyph unicode="&#x2010;" horiz-adv-x="552" d="M72 614v205h409v-205h-409z" />
<glyph unicode="&#x2011;" horiz-adv-x="552" d="M72 614v205h409v-205h-409z" />
<glyph unicode="&#x2012;" d="M0 625v184h811v-184h-811z" />
<glyph unicode="&#x2013;" horiz-adv-x="1024" d="M0 625v184h1024v-184h-1024z" />
<glyph unicode="&#x2014;" horiz-adv-x="2048" d="M0 625v184h2048v-184h-2048z" />
<glyph unicode="&#x2018;" horiz-adv-x="380" d="M82 1012v194l98 228h92l-59 -205h86v-217h-217z" />
<glyph unicode="&#x2019;" horiz-adv-x="380" d="M82 1217v217h217v-195l-98 -227h-92l59 205h-86z" />
<glyph unicode="&#x201a;" horiz-adv-x="380" d="M82 0v217h217v-194l-98 -228h-92l59 205h-86z" />
<glyph unicode="&#x201c;" horiz-adv-x="679" d="M82 1012v194l98 228h92l-59 -205h86v-217h-217zM381 1012v194l98 228h92l-59 -205h86v-217h-217z" />
<glyph unicode="&#x201d;" horiz-adv-x="679" d="M82 1217v217h217v-195l-98 -227h-92l59 205h-86zM381 1217v217h217v-195l-98 -227h-92l59 205h-86z" />
<glyph unicode="&#x201e;" horiz-adv-x="679" d="M82 0v217h217v-194l-98 -228h-92l59 205h-86zM381 0v217h217v-194l-98 -228h-92l59 205h-86z" />
<glyph unicode="&#x2020;" d="M51 901v174h262v359h185v-359h262v-174h-262v-1034h-185v1034h-262z" />
<glyph unicode="&#x2021;" d="M51 225v174h262v502h-262v174h262v359h185v-359h262v-174h-262v-502h262v-174h-262v-358h-185v358h-262z" />
<glyph unicode="&#x2022;" d="M121 717q0 119 83 201.5t201.5 82.5t201.5 -82.5t83 -201.5t-83 -202t-201.5 -83t-201.5 83t-83 202z" />
<glyph unicode="&#x2026;" horiz-adv-x="978" d="M82 0v217h217v-217h-217zM381 0v217h217v-217h-217zM680 0v217h217v-217h-217z" />
<glyph unicode="&#x202f;" horiz-adv-x="366" />
<glyph unicode="&#x2030;" horiz-adv-x="1808" d="M70 743v471q0 111 55 170.5t161.5 59.5t162 -59.5t55.5 -170.5v-471q0 -111 -55.5 -170t-162 -59t-161.5 59t-55 170zM213 733q0 -90 73.5 -90t73.5 90v492q0 90 -73.5 90t-73.5 -90v-492zM287 0l565 1434h133l-565 -1434h-133zM780 219v471q0 111 55.5 170.5t162 59.5 t161.5 -59.5t55 -170.5v-471q0 -111 -55 -170t-161.5 -59t-162 59t-55.5 170zM924 209q0 -90 73.5 -90t73.5 90v491q0 90 -73.5 90t-73.5 -90v-491zM1305 219v471q0 111 55 170.5t161.5 59.5t162 -59.5t55.5 -170.5v-471q0 -111 -55.5 -170t-162 -59t-161.5 59t-55 170z M1448 209q0 -90 73.5 -90t73.5 90v491q0 90 -73.5 90t-73.5 -90v-491z" />
<glyph unicode="&#x2039;" horiz-adv-x="401" d="M33 719l123 545h213l-121 -545l121 -578h-213z" />
<glyph unicode="&#x203a;" horiz-adv-x="401" d="M33 141l121 578l-121 545h213l123 -545l-123 -578h-213z" />
<glyph unicode="&#x2044;" horiz-adv-x="137" d="M-281 0l566 1434h133l-565 -1434h-134z" />
<glyph unicode="&#x205f;" horiz-adv-x="457" />
<glyph unicode="&#x2070;" horiz-adv-x="573" d="M70 938v471q0 111 55 170t161.5 59t162 -59t55.5 -170v-471q0 -111 -55.5 -170t-162 -59t-161.5 59t-55 170zM213 928q0 -90 73.5 -90t73.5 90v491q0 90 -73.5 90t-73.5 -90v-491z" />
<glyph unicode="&#x2074;" horiz-adv-x="573" d="M49 883v131l260 614h156v-614h67v-131h-67v-164h-141v164h-275zM178 1014h146v336z" />
<glyph unicode="&#x2075;" horiz-adv-x="573" d="M76 934v76h135v-84q0 -88 73.5 -88t73.5 88v198q0 90 -73.5 90t-73.5 -90v-26h-135l26 528h377v-131h-250l-10 -217q39 68 125 68q158 0 158 -209v-203q0 -111 -54.5 -170t-159 -59t-158.5 59t-54 170z" />
<glyph unicode="&#x2076;" horiz-adv-x="573" d="M74 938v465q0 235 217 235h2q104 0 158.5 -59t54.5 -170v-23h-135v33q0 90 -74 90q-41 0 -60.5 -24.5t-19.5 -87.5v-166q39 80 133 80q158 0 158 -207v-166q0 -111 -56.5 -170t-161 -59t-160.5 59t-56 170zM217 928q0 -88 74 -88t74 88v164q0 90 -74 90t-74 -90v-164z " />
<glyph unicode="&#x2077;" horiz-adv-x="573" d="M72 1499v129h430v-125l-211 -784h-144l209 780h-284z" />
<glyph unicode="&#x2078;" horiz-adv-x="573" d="M63 1380v29q0 109 58.5 169t165 60t165 -60t58.5 -169v-29q0 -133 -88 -182q88 -49 88 -190v-70q0 -109 -58.5 -169t-165 -60t-165 60t-58.5 169v70q0 141 89 190q-88 49 -89 182zM207 940q0 -102 80 -102t80 102v86q0 102 -80 102t-80 -102v-86zM207 1354q0 -96 80 -97 h1q79 0 79 97v51q0 104 -80 104t-80 -104v-51z" />
<glyph unicode="&#x2079;" horiz-adv-x="573" d="M66 1243v166q0 111 56 170t160.5 59t161 -59t56.5 -170v-465q0 -235 -217 -235h-2q-104 0 -158.5 59t-54.5 170v23h135v-33q0 -90 73 -90q41 0 60.5 24.5t19.5 87.5v166q-39 -80 -133 -80q-158 0 -157 207zM209 1255q0 -90 73.5 -90t73.5 90v164q0 88 -73.5 88t-73.5 -88 v-164z" />
<glyph unicode="&#x2080;" horiz-adv-x="573" d="M70 86v471q0 111 55 170t161.5 59t162 -59t55.5 -170v-471q0 -111 -55.5 -170t-162 -59t-161.5 59t-55 170zM213 76q0 -90 73.5 -90t73.5 90v491q0 90 -73.5 90t-73.5 -90v-491z" />
<glyph unicode="&#x2081;" horiz-adv-x="409" d="M51 561v101q74 0 105.5 28.5t54.5 85.5h94v-909h-143v694h-111z" />
<glyph unicode="&#x2082;" horiz-adv-x="573" d="M86 -23q0 74 28.5 136.5t70.5 108.5l84 92q42 46 71 108.5t29 134.5q0 102 -74 102t-74 -90v-96h-135v88q0 227 213 227t213 -227q0 -100 -48 -191t-104.5 -144.5t-98.5 -115.5q-34 -49 -34 -93q0 -11 2 -21h271v-129h-414v110z" />
<glyph unicode="&#x2083;" horiz-adv-x="573" d="M74 510v47q0 229 213 229t213 -229v-22q0 -145 -101 -187q100 -43 101 -190v-72q0 -229 -213 -229t-213 229v74h135v-84q0 -90 73.5 -90t73.5 104v70q0 63 -21.5 88.5t-70.5 25.5h-49v129h55q86 0 86 99v51q0 104 -73.5 104t-73.5 -90v-57h-135z" />
<glyph unicode="&#x2084;" horiz-adv-x="573" d="M49 31v131l260 614h156v-614h67v-131h-67v-164h-141v164h-275zM178 162h146v336z" />
<glyph unicode="&#x2085;" horiz-adv-x="573" d="M76 82v76h135v-84q0 -88 73.5 -88t73.5 88v198q0 90 -73.5 90t-73.5 -90v-26h-135l26 528h377v-131h-250l-10 -217q39 68 125 68q158 0 158 -209v-203q0 -111 -54.5 -170t-159 -59t-158.5 59t-54 170z" />
<glyph unicode="&#x2086;" horiz-adv-x="573" d="M74 86v465q0 235 217 235h2q104 0 158.5 -59t54.5 -170v-22h-135v32q0 90 -74 90q-41 0 -60.5 -24.5t-19.5 -87.5v-166q39 80 133 80q158 0 158 -207v-166q0 -111 -56.5 -170t-161 -59t-160.5 59t-56 170zM217 76q0 -88 74 -88t74 88v164q0 90 -74 90t-74 -90v-164z" />
<glyph unicode="&#x2087;" horiz-adv-x="573" d="M72 647v129h430v-125l-211 -784h-144l209 780h-284z" />
<glyph unicode="&#x2088;" horiz-adv-x="573" d="M63 528v29q0 109 58.5 169t165 60t165 -60t58.5 -169v-29q0 -133 -88 -182q88 -49 88 -190v-70q0 -109 -58.5 -169t-165 -60t-165 60t-58.5 169v70q0 141 89 190q-88 49 -89 182zM207 88q0 -102 80 -102t80 102v86q0 102 -80 102t-80 -102v-86zM207 502q0 -96 80 -96 t80 96v51q0 104 -80 104t-80 -104v-51z" />
<glyph unicode="&#x2089;" horiz-adv-x="573" d="M66 391v166q0 111 56 170t160.5 59t161 -59t56.5 -170v-465q0 -235 -217 -235h-2q-104 0 -158.5 59t-54.5 170v23h135v-33q0 -90 73 -90q41 0 60.5 24.5t19.5 87.5v166q-39 -80 -133 -80q-158 0 -157 207zM209 403q0 -90 73.5 -90t73.5 90v164q0 88 -73.5 88t-73.5 -88 v-164z" />
<glyph unicode="&#x20ac;" d="M39 553v113h57v112h-57v113h57v199q0 174 83 267t247 93t247 -93t83 -267v-105h-213v119q0 141 -110.5 141t-110.5 -141v-213h315v-113h-315v-112h315v-113h-315v-223q0 -139 110 -140h1q110 0 110 140v129h213v-115q0 -174 -83 -267t-247 -93t-247 93t-83 267v209h-57z " />
<glyph unicode="&#x20b9;" d="M53 641v174h189q88 0 130 31t42 104h-361v174h361q0 74 -42 105t-130 31h-189v174h705v-174h-172q39 -57 51 -136h121v-174h-121q-12 -143 -110.5 -226t-233.5 -83l477 -641h-242z" />
<glyph unicode="&#x2117;" horiz-adv-x="1507" d="M41 716.5q0 317.5 204 525.5t509 208t508.5 -208t203.5 -525.5t-203.5 -525t-508.5 -207.5t-509 207.5t-204 525zM188 717q0 -256 161 -423t404.5 -167t404.5 167t161 423t-161 423t-404.5 167t-404.5 -167t-161 -423zM563 260v877h238q231 0 231 -230v-114 q0 -229 -231 -230h-82v-303h-156zM719 707h74q84 0 84 104v78q0 104 -84 104h-74v-286z" />
<glyph unicode="&#x2122;" horiz-adv-x="1200" d="M20 1303v131h443v-131h-150v-598h-143v598h-150zM549 705v729h199l106 -512l96 512h199v-729h-135v518l-96 -518h-136l-108 514v-514h-125z" />
<glyph unicode="&#x2153;" horiz-adv-x="1284" d="M133 1219v100q74 0 105.5 28.5t54.5 86.5h94v-910h-143v695h-111zM266 0l565 1434h134l-566 -1434h-133zM784 219v74h136v-84q0 -90 73.5 -90t73.5 104v70q0 63 -21.5 89t-70.5 26h-49v129h55q86 0 86 98v51q0 104 -73 105h-1q-73 0 -73 -91v-57h-136v47q0 229 213 230h1 q212 0 212 -230v-22q0 -145 -100 -187q100 -43 100 -190v-72q0 -229 -213 -229t-213 229z" />
<glyph unicode="&#x2154;" horiz-adv-x="1284" d="M86 522v111q0 74 28.5 136t70.5 109l84 92q42 46 71 108t29 134q0 102 -74 103h-1q-73 0 -73 -90v-97h-135v89q0 227 213 227t213 -227q0 -100 -48 -191.5t-104.5 -145t-98.5 -114.5q-34 -49 -34 -94q0 -11 2 -21h271v-129h-414zM313 0l566 1434h133l-566 -1434h-133z M784 219v74h136v-84q0 -90 73.5 -90t73.5 104v70q0 63 -21.5 89t-70.5 26h-49v129h55q86 0 86 98v51q0 104 -73 105h-1q-73 0 -73 -91v-57h-136v47q0 229 213 230h1q212 0 212 -230v-22q0 -145 -100 -187q100 -43 100 -190v-72q0 -229 -213 -229t-213 229z" />
<glyph unicode="&#x215b;" horiz-adv-x="1284" d="M133 1219v100q74 0 105.5 28.5t54.5 86.5h94v-910h-143v695h-111zM266 0l565 1434h134l-566 -1434h-133zM774 219v70q0 141 88 190q-88 49 -88 183v28q0 109 58.5 169.5t165 60.5t165 -60.5t58.5 -169.5v-28q0 -133 -88 -183q88 -49 88 -190v-70q0 -109 -58.5 -169 t-165 -60t-165 60.5t-58.5 168.5zM918 221q0 -102 79.5 -102t79.5 102v86q0 102 -79 103h-1q-79 0 -79 -103v-86zM918 635q0 -96 79.5 -96t79.5 96v51q0 104 -79.5 104t-79.5 -104v-51z" />
<glyph unicode="&#x215c;" horiz-adv-x="1284" d="M74 1167v47q0 229 213 230h1q212 0 212 -230v-22q0 -145 -101 -186q100 -43 101 -191v-72q0 -229 -213 -229t-213 229v74h135v-84q0 -90 73 -90v1q74 0 74 104v69q0 63 -21.5 89t-70.5 26h-49v129h55q86 0 86 98v51q0 104 -74 105q-73 0 -73 -90v-58h-135zM293 0 l565 1434h133l-565 -1434h-133zM774 219v70q0 141 88 190q-88 49 -88 183v28q0 109 58.5 169.5t165 60.5t165 -60.5t58.5 -169.5v-28q0 -133 -88 -183q88 -49 88 -190v-70q0 -109 -58.5 -169t-165 -60t-165 60.5t-58.5 168.5zM918 221q0 -102 79.5 -102t79.5 102v86 q0 102 -80 103q-79 0 -79 -103v-86zM918 635q0 -96 79.5 -96t79.5 96v51q0 104 -79.5 104t-79.5 -104v-51z" />
<glyph unicode="&#x215d;" horiz-adv-x="1284" d="M76 739v76h135v-84q0 -88 73.5 -88t73.5 88v199q0 90 -73.5 90t-73.5 -90v-27h-135l26 529h377v-132h-250l-10 -217q39 68 125 68q158 0 158 -209v-203q0 -111 -54.5 -170t-159 -59t-158.5 59.5t-54 169.5zM293 0l565 1434h133l-565 -1434h-133zM774 219v70q0 141 88 190 q-88 49 -88 183v28q0 109 58.5 169.5t165 60.5t165 -60.5t58.5 -169.5v-28q0 -133 -88 -183q88 -49 88 -190v-70q0 -109 -58.5 -169t-165 -60t-165 60.5t-58.5 168.5zM918 221q0 -102 79.5 -102t79.5 102v86q0 102 -79 103h-1q-79 0 -79 -103v-86zM918 635q0 -96 79.5 -96 t79.5 96v51q0 104 -79.5 104t-79.5 -104v-51z" />
<glyph unicode="&#x215e;" horiz-adv-x="1284" d="M72 1305v129h430v-125l-211 -785h-144l209 781h-284zM231 0l566 1434h133l-565 -1434h-134zM774 219v70q0 141 88 190q-88 49 -88 183v28q0 109 58.5 169.5t165 60.5t165 -60.5t58.5 -169.5v-28q0 -133 -88 -183q88 -49 88 -190v-70q0 -109 -58.5 -169t-165 -60 t-165 60.5t-58.5 168.5zM918 221q0 -102 79.5 -102t79.5 102v86q0 102 -79 103h-1q-79 0 -79 -103v-86zM918 635q0 -96 79.5 -96t79.5 96v51q0 104 -79.5 104t-79.5 -104v-51z" />
<glyph unicode="&#x2212;" d="M51 637v160h709v-160h-709z" />
<glyph unicode="&#x221e;" horiz-adv-x="1501" d="M0 293v303q23 55 68 110.5t102 109.5t61 58q6 147 55.5 276.5t155 220.5t246.5 91q137 0 236.5 -46t157 -131t87 -178t45.5 -216q45 -10 139.5 -98t147.5 -197v-303q-45 98 -141 230t-137 132q6 -86 6 -100q0 -92 -31 -262h-86q33 213 33 407q0 653 -436 654 q-109 0 -188 -54.5t-121 -148.5t-61.5 -199.5t-19.5 -228.5q0 -252 60 -430h-96q-39 137 -39 377q-35 -18 -81 -89t-100.5 -173.5t-62.5 -114.5zM14 0l25 256h76q37 0 37 -36v-7l-19 -168q-2 -45 -43 -45h-76zM61 37h23q6 0 6 8l16 164q2 8 -6 8h-18zM156 0l30 256h43 l-18 -170h27l18 170h47l-29 -256h-45l7 47h-27l-6 -47h-47zM303 0l23 213q2 43 45 43h35q37 0 37 -34q0 -4 -1 -9l-22 -213h-47l8 47h-29l-6 -47h-43zM354 86h29l14 123q0 8 -6 8h-12q-12 0 -12 -8zM356 756q0 215 83 351t278 136q389 0 389 -520q0 -154 -51 -430h-150 q109 96 127 239q-8 -16 -26 -16q-6 0 -6.5 4t4.5 6q18 12 24 22.5t8 47.5q-8 -12 -30 -12q-2 0 -21.5 -9.5t-32.5 -9.5q-29 0 -82 7.5t-143 7.5q-45 0 -107.5 -12.5t-78.5 -12.5q-10 0 -26.5 4t-22.5 4q-57 0 -58 25q0 20 76 37.5t152 17.5q10 0 24 -1t24.5 -1t32 4t29.5 4 q229 0 260 -41q-2 33 -28.5 59.5t-61.5 26.5q-12 0 -12 15v49q0 68 -33 69q8 -14 8 -34q0 -37 -22.5 -66t-55.5 -29q-8 0 -21 4l-13 5q-2 0 -29.5 -29t-56.5 -29q-25 0 -48.5 25.5t-29.5 25.5t-22.5 -4t-28.5 -4q-16 0 -29.5 16.5t-13.5 34.5q0 45 16 72 q-14 -14 -31.5 -74.5t-52.5 -85.5q-39 -23 -39 -82l45 -69q0 -8 -6 -8q-14 0 -25 10q27 -139 99 -213h-113q-72 233 -72 463zM414 811q0 -102 6 -160q8 12 45 45t41 64q10 76 78 84q25 10 47 10q10 0 17 17l19 50q13 33 33 58l-26 -8q-2 -49 -38 -87t-89 -38 q-37 0 -63.5 20.5t-30.5 42.5q-8 -4 -31 -10q-8 -33 -8 -88zM428 926q76 41 84 80q-12 8 -12 14q0 8 6 8l4 -3q4 -3 13 -8t20.5 -10.5t28 -8.5t34.5 -3q50 0 101 35q-6 6 -7 12q0 4 5 5q2 0 12 -9.5t30.5 -17.5t45.5 -8q33 0 59.5 8t39.5 17l13 10q8 0 8 -5l-16 -16 q49 0 107 -22q-59 163 -282 163h-3q-113 0 -188.5 -67.5t-102.5 -173.5zM446 0l27 256h76q37 0 37 -36v-7l-13 -123q-2 -25 -20 -35l16 -55h-43l-14 47h-12l-6 -47h-48zM479 924q9 -50 68 -50q29 0 61.5 23t32.5 49q0 12 -2 19h-18q-23 0 -37 2q-10 -29 -37 -29 q-20 0 -31 10q-8 -8 -37 -24zM485 590q0 -20 41 -21q49 0 110.5 13.5t90.5 13.5q39 0 118 -7t107 -7q10 0 19.5 4t15.5 8t6 6q0 10 -74 22.5t-135 12.5q-2 0 -16 -2t-31.5 -4t-28 -2t-26.5 3t-23 3q-31 0 -73.5 -8.5t-71.5 -18.5t-29 -16zM502 86h18q10 0 10 8l11 115 q0 8 -6 8h-19zM530 961q3 -7 15 -7q14 0 20 19q-12 2 -22 8q0 -8 -13 -20zM541 596q0 25 219 25q190 0 190 -17q0 -6 -6 -6q-72 10 -180 10q-129 0 -219 -18q-4 0 -4 6zM561 756q0 -25 23 -29q23 0 37 13.5t18 13.5t24.5 -28t41.5 -28q29 0 51 21.5t24 21.5q6 0 20.5 -7 t18.5 -7q20 0 36.5 22.5t16.5 49.5q0 20 -12 36.5t-33 16.5q-14 0 -29.5 -13.5t-23.5 -13.5q-14 0 -14 27v29q0 20 -9.5 57t-19.5 37q-20 0 -38.5 -80t-28.5 -80q-6 0 -19.5 6t-23.5 6q-27 0 -43.5 -21.5t-16.5 -49.5zM592 0l29 256h51l10 -123l39 123h53l-26 -256h-43 l16 168l-31 -98h-28l-11 98l-16 -168h-43zM625 537q0 20 129 20q63 0 63 -16q0 -6 -4 -6q-8 0 -20.5 4t-20.5 4q-23 0 -53.5 -1t-40.5 -1q-8 0 -23.5 -6.5t-21.5 -6.5q-8 1 -8 9zM754 983q12 -18 20 -49t11 -49.5t10 -18.5q14 4 30 4q39 0 64 -28q70 0 69 -105 q0 -6 16.5 -14t38 -26.5t31.5 -45.5q0 2 -6 162q-18 137 -18 139l-10 6q0 -43 -37 -65.5t-84 -22.5q-43 0 -76 26t-33 60q0 2 2 8.5t2 10.5q-25 4 -30 8zM774 0l23 213q2 43 49 43h31q41 0 41 -36v-7l-27 -213h-43l6 47h-27l-6 -47h-47zM801 948q0 -20 30.5 -34.5 t63.5 -14.5q29 0 59.5 17.5t30.5 44.5q0 16 -29.5 25t-58.5 9q-10 -43 -39 -43q-27 0 -33 27q-10 0 -17 -11.5t-7 -19.5zM829 86h27l12 123q0 8 -6 8h-10q-10 0 -10 -8zM840 983q0 -14 14 -14q18 0 18 20v6q-2 0 -32 -12zM969 217l4 39h100l-4 -39h-27l-22 -217h-47l22 217 h-26zM1075 90l17 166h47l-19 -162q0 -8 8 -8h11q10 0 10 8l16 162h43l-16 -166q-2 -39 -39 -43l-18 -47h-48l19 47q-33 4 -31 43zM1208 0l31 256h72q41 0 41 -36v-7l-13 -123q-4 -43 -49 -43h-28l-7 -47h-47zM1264 86h18q10 0 10 8l11 115q2 8 -7 8h-18zM1356 0l26 256h101 l-4 -39h-58l-10 -100h45l-4 -37h-45l-4 -43h57l-4 -37h-100z" />
<glyph unicode="&#x2248;" d="M16 850q70 104 126.5 144t117.5 40q59 0 155.5 -62.5t137.5 -62.5q33 0 58.5 23.5t76.5 93.5l107 -111q-70 -102 -125.5 -139t-118.5 -37q-59 0 -155.5 62.5t-137.5 62.5q-35 0 -60.5 -23t-74.5 -93zM16 510q70 104 126.5 144t117.5 40q59 0 155.5 -62.5t137.5 -62.5 q33 0 58.5 23.5t76.5 93.5l107 -111q-70 -102 -125.5 -139t-118.5 -37q-59 0 -155.5 62.5t-137.5 62.5q-35 0 -60.5 -23t-74.5 -93z" />
<glyph unicode="&#xe000;" horiz-adv-x="1435" d="M0 1435h1435v-1435h-1435v1435z" />
<glyph horiz-adv-x="512" d="M162 -68h188v-168l-88 -131h-80l54 111h-74v188z" />
<glyph d="M63 344v746q0 172 88.5 266t254 94t254 -94t88.5 -266v-746q0 -172 -88.5 -266t-254 -94t-254 94t-88.5 266zM289 330q0 -141 117 -142q116 0 116 142v774q0 141 -116.5 141t-116.5 -141v-774z" />
<glyph horiz-adv-x="512" d="M31 1253q82 0 134 28t71.5 60.5t42.5 92.5h151v-1434h-225v1094h-174v159z" />
<glyph horiz-adv-x="755" d="M53 0v176q0 117 46 214t111 170l132 144q66 70 112 166t46 211q0 92 -30 128t-87 36q-117 0 -117 -141v-154h-213v140q0 174 86 267t250 93t250 -93t86 -267q0 -131 -50 -247t-120 -198t-137.5 -153.5t-109.5 -144.5q-32 -56 -32 -109q0 -17 3 -33h426v-205h-652z" />
<glyph horiz-adv-x="782" d="M55 344v119h213v-133q0 -141 117 -142q57 0 87 36t30 126v113q0 98 -35 140t-113 42h-75v205h88q68 0 101.5 34.5t33.5 116.5v80q0 92 -30 128t-87 36q-117 0 -117 -141v-92h-213v78q0 174 86 267t250 93t250 -93t86 -267v-37q0 -229 -158 -295q158 -70 158 -301v-113 q0 -174 -86 -267t-250 -93t-250 93t-86 267z" />
<glyph horiz-adv-x="813" d="M29 260v205l409 969h246v-969h107v-205h-107v-260h-225v260h-430zM236 465h223v530z" />
<glyph horiz-adv-x="784" d="M57 602l41 832h594v-205h-391l-18 -342q63 104 196 104q250 0 250 -327v-320q0 -174 -86 -267t-250 -93t-250 93t-86 267v119h213v-133q0 -139 117 -140h1q116 0 116 140v315q0 141 -117 141t-117 -141v-43h-213z" />
<glyph horiz-adv-x="802" d="M63 344v733q0 373 345 373q164 0 249.5 -93t85.5 -267v-37h-213v51q0 141 -116 141q-63 0 -94 -39t-31 -137v-262q59 127 209 127q250 0 250 -328v-262q0 -172 -88.5 -266t-254 -94t-254 94t-88.5 266zM289 330q0 -139 117 -140q116 0 116 140v258q0 141 -116.5 141 t-116.5 -141v-258z" />
<glyph horiz-adv-x="696" d="M20 1229v205h656v-197l-311 -1237h-226l312 1237v-8h-431z" />
<glyph horiz-adv-x="815" d="M55 1044v46q0 172 91.5 266t261.5 94t261 -94t91 -266v-46q0 -211 -139 -288q139 -78 139 -299v-113q0 -172 -91 -266t-261 -94t-261.5 94t-91.5 266v113q0 221 140 299q-139 76 -140 288zM281 350q0 -162 127 -162q125 0 127 162v133q0 162 -127 162t-127 -162v-133z M281 1001q0 -152 126 -152q1 0 1 1q127 0 127 151v80q0 164 -127 164t-127 -164v-80z" />
<glyph horiz-adv-x="802" d="M55 827v263q0 172 88 266t254 94t254 -94t88 -266v-734q0 -372 -342 -372h-2q-164 0 -250 93t-86 267v37h213v-51q0 -141 117 -142q63 0 94 39t31 138v262q-59 -127 -209 -127q-250 0 -250 327zM281 846q0 -141 116.5 -141t116.5 141v258q0 139 -116.5 139t-116.5 -139 v-258z" />
</font>
</defs>
</svg>
